<svg xmlns="http://www.w3.org/2000/svg" xml:space="preserve" viewBox="0 0 1190.55 841.89"><style>.st0{stroke-miterlimit:10}.st0,.st1,.st2{stroke:#000}.st1{fill:none;stroke-miterlimit:10}.st2{stroke-dasharray:4.9676,4.9676}.st2,.st3,.st4,.st5{fill:none;stroke-miterlimit:10}.st3{stroke:#000;stroke-dasharray:3.0354,3.0354}.st4,.st5{stroke:#fff}.st5{stroke-dasharray:5.1319,5.1319}.st7{display:inline}.st8{font-family:&quot;CenturyGothic&quot;}.st9{font-size:13.2268px}</style><font horiz-adv-x="2048"><font-face font-family="CenturyGothic" underline-position="-154" underline-thickness="102" units-per-em="2048"/><glyph horiz-adv-x="567"/><glyph d="M373 1508V368H228v1140m74-1288q51 0 87-36c24-24 36-53 36-88q0-51-36-87c-24-25-53-37-87-37s-63 12-87 37q-36 36-36 87c0 35 12 64 36 88q36 36 87 36" horiz-adv-x="604" unicode="!"/><glyph d="M562 1045H459l-22 463h148m-411-463H70l-22 463h148z" horiz-adv-x="633" unicode="&quot;"/><glyph d="M1233 602V494H985L913 0H801l72 494H540L464 0H354l76 494H184v108h263l51 334H245v109h269l70 468h107l-68-468h332l68 468h112l-69-468h224V936h-240l-48-334m-62 334H606l-49-334h332z" horiz-adv-x="1475" unicode="#"/><glyph d="M531 1574h131v-109c65-12 121-33 168-64 46-31 90-76 133-136l-108-87c-51 79-116 127-193 144V823c175-92 283-167 326-224 55-73 82-154 82-243q0-109.5-60-201C969 94 915 46 846 12c-45-22-106-38-184-48v-313H531v313c-82 7-148 20-197 39s-97 49-144 88-87 84-118 135l107 81c93-123 210-191 352-205v619c-105 51-171 86-199 105q-85.5 58.5-126 129c-27 47-41 102-41 164 0 60 15 116 45 167s71 93 123 125q76.5 48 198 60m0-139c-50-4-90-15-121-33-31-19-55-43-72-74-18-31-27-66-27-103 0-48 14-89 42-122 37-45 97-86 178-123m131-771c81 11 145 41 194 88q72 70.5 72 159c0 57-18 110-55 159S765 613 662 668z" horiz-adv-x="1135" unicode="$"/><glyph d="M1381 1536 309-102H177l975 1492c-115-28-256-42-422-42l-54 1c41-57 62-118 62-182 0-91-32-173-95-245-64-72-149-108-254-108-97 0-178 34-244 101s-99 148-99 244c0 64 15 122 45 175 30 52 73 94 128 126s112 48 170 48c25 0 65-6 122-18 87-19 181-28 282-28 75 0 145 5 212 15 66 9 152 29 258 59m-871-155c-61 0-112-21-155-64s-64-95-64-156 21-112 64-155 94-64 155-64 113 21 156 64 64 94 64 155-21 113-64 156-95 64-156 64m803-732c95 0 177-34 245-101 67-68 101-150 101-245s-34-177-101-244c-68-68-150-102-245-102S1018-9 951 59c-68 67-102 149-102 244s34 177 102 245c67 67 149 101 244 101m0-127c-61 0-112-21-155-64s-64-94-64-155 21-112 64-155 94-64 155-64 113 21 156 64 64 94 64 155-21 112-64 155-95 64-156 64" horiz-adv-x="1587" unicode="%"/><glyph d="m1292 544 100-106c-64-57-122-106-173-147 34-36 83-86 147-151 51-51 94-97 131-140h-205l-189 197C976 101 875 38 798 8Q682.5-37 555-37C442-37 351-4 282 61S179 207 179 304c0 73 23 147 70 221 46 73 140 166 283 279-81 97-132 169-155 216-23 46-35 90-35 132 0 73 28 134 85 182 65 56 147 84 244 84 61 0 117-12 168-37s89-58 116-99c27-42 40-86 40-133 0-49-17-102-52-157-35-56-103-127-205-214l223-234 153-153c73 61 133 112 178 153M647 888c71 55 125 110 161 163 25 38 38 72 38 101 0 34-16 63-49 88s-77 37-132 37c-52 0-94-13-127-38s-49-55-49-90c0-27 7-52 20-75q49.5-85.5 138-186m-18-195c-125-94-206-169-245-224-39-56-58-108-58-155 0-56 24-105 71-148s105-65 174-65c52 0 103 11 153 32 79 34 172 89 279 166L763 545c-40 42-85 91-134 148" horiz-adv-x="1550" unicode="&amp;"/><glyph d="M254 1045H151l-22 463h148z" horiz-adv-x="405" unicode="'"/><glyph d="M470 1536h162c-65-134-118-290-157-469s-59-363-59-553c0-176 15-346 45-509 29-163 70-307 122-431H429C380-307 340-168 311-7s-44 328-44 502c0 187 17 370 52 548 35 177 85 342 151 493" horiz-adv-x="756" unicode="("/><glyph d="M286-426H124c66 134 119 290 158 469s58 363 58 553c0 176-15 346-44 509-30 163-71 307-123 431h154c50-119 90-258 119-419s43-329 43-503c0-187-17-369-52-546-35-178-85-343-151-494" horiz-adv-x="756" unicode=")"/><glyph d="M369 1508h130l-29-297 246 176 66-112-277-125 277-123-66-113-246 174 29-297H369l31 297-246-174-66 113 281 123-281 125 66 112 246-176z" horiz-adv-x="870" unicode="*"/><glyph d="M552 804v434h137V804h438V667H689V233H552v434H115v137z" horiz-adv-x="1241" unicode="+"/><glyph d="m295 270 135-64-203-378-99 42z" horiz-adv-x="567" unicode=","/><glyph d="M65 614h550V492H65z" horiz-adv-x="680" unicode="-"/><glyph d="M310 220q51 0 87-36c24-24 36-53 36-88q0-51-36-87c-24-25-53-37-87-37s-63 12-87 37q-36 36-36 87c0 35 12 64 36 88q36 36 87 36" horiz-adv-x="567" unicode="."/><glyph d="M836 1508 225-200H72l610 1708z" horiz-adv-x="895" unicode="/"/><glyph d="M65 735q0 291 63 450c41 106 100 186 176 241s161 82 255 82c95 0 182-27 259-82s139-138 184-248 67-258 67-443q0-277.5-66-441C958 185 897 102 819 47 741-9 654-37 559-37c-94 0-179 27-254 81S171 179 129 286C86 393 65 542 65 735m139-3c0-166 15-291 45-376 29-85 73-150 131-194s119-66 184-66 126 22 183 65 100 107 129 193c37 105 55 231 55 378 0 148-16 269-49 364q-49.5 141-135 207c-58 43-119 65-183 65-65 0-127-22-184-65-57-44-101-108-131-193q-45-127.5-45-378" horiz-adv-x="1135" unicode="0"/><glyph d="M379 1471h289V0H522v1327H291z" horiz-adv-x="1135" unicode="1"/><glyph d="M237 1010H96c4 145 53 265 146 358s207 140 344 140c135 0 245-44 329-131 83-87 125-190 125-309q0-124.5-60-234c-40-73-118-172-233-297L381 142h679V0H61l562 607c114 122 188 213 223 272q51 88.5 51 186c0 83-31 154-92 214-62 59-138 89-227 89-94 0-172-31-234-94-63-63-98-151-107-264" horiz-adv-x="1135" unicode="2"/><glyph d="M271 1130H121c27 121 80 215 157 280s169 98 274 98c77 0 148-17 215-52 66-35 117-83 154-142q54-88.5 54-186c0-127-63-227-189-301q106.5-43.5 174-126c64-78 96-165 96-262 0-83-22-163-66-238-44-76-104-135-180-176S649-37 555-37C428-37 323 0 238 73S98 253 72 394h144c25-95 62-164 109-207 61-54 138-81 232-81 107 0 192 32 257 96s97 139 97 225c0 57-16 111-48 161-33 50-76 88-130 113-55 25-139 41-253 47v135c67 0 129 12 184 36 55 23 96 53 121 90s37 77 37 120c0 64-25 119-76 166s-116 70-194 70c-63 0-118-18-164-53-46-36-85-97-117-182" horiz-adv-x="1135" unicode="3"/><glyph d="M872 1508h30V483h178V342H902V0H755v342H52m703 141v613L322 483z" horiz-adv-x="1135" unicode="4"/><glyph d="M1007 1471v-140H483l-73-401c64 19 122 28 173 28 134 0 245-45 332-134 87-90 130-205 130-345 0-97-22-185-67-266S873 71 797 28c-77-43-165-65-265-65C413-37 312 0 230 73S99 240 83 356h151c11-57 31-103 58-138s63-64 108-85q67.5-33 141-33c97 0 180 37 249 110s104 165 104 275c0 99-31 180-94 242s-146 93-251 93c-87 0-192-26-315-79l136 730z" horiz-adv-x="1135" unicode="5"/><glyph d="m751 1508 121-79-397-602q79.5 27 150 27 175.5 0 297-126c81-85 122-189 122-312 0-85-20-161-59-229-39-69-95-123-167-163-73-41-151-61-234-61-81 0-155 20-224 59s-124 93-163 164-59 146-59 227c0 60 12 123 37 190 24 66 67 146 130 239m285-117c-85 0-158-30-218-90-61-61-91-134-91-220 0-85 30-158 91-218 60-61 133-91 218-91s158 30 219 91c60 60 90 133 90 218 0 86-30 159-90 220q-91.5 90-219 90" horiz-adv-x="1135" unicode="6"/><glyph d="M147 1471h933L293-37 172 25l680 1307H147z" horiz-adv-x="1135" unicode="7"/><glyph d="M787 807c99-49 171-106 214-169s64-135 64-216q0-169.5-111-300C863 16 734-37 565-37c-163 0-286 47-370 140S69 298 69 410q0 123 66 222c44 65 117 124 220 175-72 37-126 84-162 139s-54 115-54 178c0 64 19 127 58 188q57 91.5 159 144c67 35 140 52 219 52 77 0 148-18 213-53s117-83 154-144 55-124 55-191-17-126-52-178-88-97-158-135m-219 558c-81 0-147-24-200-71-53-48-80-105-80-171 0-65 29-124 86-177s123-80 199-80q73.5 0 138 36t102 99c24 41 36 83 36 125 0 59-24 114-72 164s-118 75-209 75m7-632c-101 0-186-33-255-98-69-66-103-143-103-230 0-54 15-105 44-153q43.5-72 123-111t183-39c107 0 193 32 256 95s95 137 95 222c0 82-33 155-100 219-67 63-148 95-243 95" horiz-adv-x="1135" unicode="8"/><glyph d="M393-37 272 41l397 602c-53-17-103-26-150-26-117 0-216 42-297 127-81 84-122 188-122 311 0 85 20 161 59 229s95 122 168 163c72 41 149 61 232 61 81 0 157-20 226-59q103.5-58.5 162-165c39-71 59-146 59-226 0-61-12-124-36-190-25-67-68-147-131-240M553 746c86 0 159 30 220 91 60 60 90 133 90 218q0 127.5-90 219c-61 60-134 90-220 90-85 0-158-30-218-90-61-61-91-134-91-219s30-158 91-218c60-61 133-91 218-91" horiz-adv-x="1135" unicode="9"/><glyph d="M310 1116q51 0 87-36c24-24 36-53 36-88s-12-64-36-88q-36-36-87-36t-87 36c-24 24-36 53-36 88 0 34 12 63 36 88q36 36 87 36m0-896q51 0 87-36c24-24 36-53 36-88q0-51-36-87c-24-25-53-37-87-37s-63 12-87 37q-36 36-36 87c0 35 12 64 36 88q36 36 87 36" horiz-adv-x="567" unicode=":"/><glyph d="M310 1116q51 0 87-36c24-24 36-53 36-88s-12-64-36-88q-36-36-87-36t-87 36c-24 24-36 53-36 88 0 34 12 63 36 88q36 36 87 36m-15-846 135-64-203-378-99 42z" horiz-adv-x="567" unicode=";"/><glyph d="M1137 347V201L104 670v130l1033 471v-147L298 734z" horiz-adv-x="1241" unicode="&lt;"/><glyph d="M1127 1024V887H115v137m1012-440V447H115v137z" horiz-adv-x="1241" unicode="="/><glyph d="m104 347 839 387-839 390v147l1033-471V670L104 201z" horiz-adv-x="1241" unicode="&gt;"/><glyph d="M315 1071H170c1 135 42 241 121 320 79 78 184 117 317 117 131 0 233-33 308-99s112-148 112-246q0-70.5-30-129c-21-40-52-76-93-107-41-32-114-68-217-109-130-52-209-91-236-116-28-26-42-57-42-94 0-39 19-73 57-104 37-31 86-46 146-46 66 0 117 17 152 51 35 33 57 87 65 161h146c-5-111-39-198-103-259-65-62-151-93-260-93q-162 0-258 84t-96 207q0 60 27 114c17 35 42 65 75 89 32 24 93 54 182 91 144 59 236 103 277 132q60 43.5 60 126c0 58-24 107-73 147s-115 60-197 60c-100 0-178-33-233-99-39-46-59-112-62-198m292-851q51 0 87-36c24-24 36-53 36-88q0-51-36-87c-24-25-53-37-87-37s-63 12-87 37q-36 36-36 87c0 35 12 64 36 88q36 36 87 36" horiz-adv-x="1210" unicode="?"/><glyph d="M1444 301h106c-89-111-172-189-248-234-108-63-231-94-369-94C787-27 652 8 529 77Q344.5 180.5 241 359c-69 119-104 250-104 391 0 143 35 277 105 400 69 123 164 219 284 288 120 68 251 102 394 102 201 0 371-64 510-193s208-280 208-451c0-125-29-232-86-322-58-91-136-161-235-211-75-39-140-58-193-58-39 0-69 10-92 31-17 15-26 42-27 80q-34.5-43.5-93-72c-40-19-81-29-124-29-96 0-175 33-238 100-63 66-94 154-94 263 0 118 38 226 114 323s181 146 314 146c59 0 108-11 148-33 39-22 77-60 112-115l26 138h108l-116-654c-3-21-5-35-5-41 0-15 5-27 14-36s21-13 36-13c39 0 91 23 154 69 63 45 112 104 147 176 35 71 52 151 52 238 0 169-66 310-197 421-123 103-272 155-448 155-131 0-249-30-355-89q-160.5-90-252-252c-62-109-93-226-93-352 0-127 31-245 93-352 62-108 148-193 258-254 109-61 230-92 362-92 97 0 184 17 263 52s163 97 253 188M838 428c44 0 85 14 124 42 39 27 69 69 92 124 29 73 44 146 44 219 0 67-19 122-56 164q-57 63-147 63c-80 0-149-33-207-98-59-66-88-148-88-246 0-82 22-147 67-195 44-49 101-73 171-73" horiz-adv-x="1776" unicode="@"/><glyph d="M780 1471 1466 0h-158l-231 484H443L213 0H49l695 1471m18-312L509 626h503z" horiz-adv-x="1515" unicode="A"/><glyph d="M183 1471h290c117 0 206-14 269-41 63-28 112-71 149-128 36-57 54-121 54-191 0-65-16-125-48-178-32-54-79-98-141-131 77-26 136-56 177-91s74-78 97-127c23-50 34-104 34-162 0-118-43-218-129-299Q804.5 0 587 0H183m144 1327V856h84c102 0 177 10 225 29q72 28.5 114 90c28 41 42 86 42 136 0 67-23 120-70 159q-70.5 57-225 57M327 708V144h182c107 0 186 11 236 32s90 53 121 98c30 45 45 93 45 145 0 65-21 122-64 171s-101 82-176 100q-75 18-261 18z" horiz-adv-x="1176" unicode="B"/><glyph d="m1549 1198-116-89c-64 83-141 147-230 190-90 43-189 64-296 64-117 0-226-28-326-84-100-57-177-132-232-227s-83-202-83-321c0-179 62-329 185-449q184.5-180 465-180c206 0 378 81 517 242l116-88c-73-93-165-165-274-216-110-51-233-77-368-77-257 0-460 86-609 257-125 145-187 319-187 524 0 215 76 397 227 544s340 220 567 220q205.5 0 372-81c111-55 201-131 272-229" horiz-adv-x="1665" unicode="C"/><glyph d="M179 0v1471h305c220 0 380-18 479-53 143-50 254-137 335-260q120-184.5 120-441c0-147-32-277-95-389-64-112-147-195-248-248C973 27 830 0 647 0M320 139h170c203 0 344 13 423 38q166.5 54 261 195c63 93 95 208 95 343 0 142-34 263-103 364s-164 170-287 207c-92 28-244 42-455 42H320z" horiz-adv-x="1524" unicode="D"/><glyph d="M180 1471h843v-145H327V866h690V722H327V145h690V0H180z" horiz-adv-x="1098" unicode="E"/><glyph d="M179 1471h737v-145H325V866h591V721H325V0H179z" horiz-adv-x="993" unicode="F"/><glyph d="m1598 1224-114-108c-82 81-172 142-269 184-98 41-193 62-286 62-115 0-225-28-329-85-105-57-186-133-243-230s-86-200-86-308c0-111 30-216 89-315 59-100 141-178 246-235s219-86 344-86c151 0 279 43 384 128s167 196 186 332h-469v142h634c-1-227-69-408-202-541Q1282-37 946-37c-272 0-487 93-646 278Q117 455.5 117 736c0 139 35 269 105 389q105 180 288 282c122 67 260 101 414 101 125 0 242-22 352-67s217-118 322-217" horiz-adv-x="1786" unicode="G"/><glyph d="M177 1471h148V854h748v617h148V0h-148v710H325V0H177z" horiz-adv-x="1399" unicode="H"/><glyph d="M158 1471h147V0H158z" horiz-adv-x="463" unicode="I"/><glyph d="M660 1471h148V478c0-153-12-259-35-318-24-60-64-108-119-143q-82.5-54-201-54c-59 0-118 12-175 35-58 23-122 63-192 121l78 117c77-54 140-92 191-114 33-15 66-22 98-22 42 0 80 13 115 38 34 25 58 59 72 101 13 42 20 123 20 244z" horiz-adv-x="987" unicode="J"/><glyph d="M179 1471h150V919l587 552h199L408 811 1170 0H975L329 686V0H179z" horiz-adv-x="1210" unicode="K"/><glyph d="M179 1471h148V142h565V0H179z" horiz-adv-x="946" unicode="L"/><glyph d="m112 0 209 1471h24L943 264l592 1207h24L1770 0h-145l-144 1052L961 0h-37L397 1060 254 0z" horiz-adv-x="1882" unicode="M"/><glyph d="M180 0v1471h32l978-1126v1126h145V0h-33L332 1112V0z" horiz-adv-x="1515" unicode="N"/><glyph d="M880 1508c223 0 409-74 559-223q225-223.5 225-549c0-215-75-398-224-548C1290 38 1107-37 892-37c-218 0-402 75-552 224S115 517 115 729c0 141 34 272 103 393 68 121 161 215 279 284 118 68 246 102 383 102m7-144c-109 0-212-28-309-85s-173-133-228-229-82-203-82-321c0-175 61-322 182-442 121-121 266-181 437-181 114 0 220 28 317 83s172 131 227 227c54 96 81 203 81 320s-27 222-81 317c-55 94-131 169-230 226s-203 85-314 85" horiz-adv-x="1780" unicode="O"/><glyph d="M178 1471h293c168 0 281-7 340-22 84-21 153-63 206-127 53-65 80-146 80-243 0-98-26-179-78-242-52-64-124-107-215-129-67-16-191-24-374-24H325V0H178m147 1328V828l249-3c101 0 174 9 221 28 47 18 83 48 110 89s40 86 40 137c0 49-13 95-40 136q-40.5 61.5-105 87c-44 17-116 26-215 26z" horiz-adv-x="1212" unicode="P"/><glyph d="m1413 160 218-276h-181L1300 74C1180 0 1045-37 894-37c-218 0-402 75-552 224S117 517 117 729c0 141 34 273 103 394s162 215 281 283c118 68 248 102 389 102 218 0 402-74 552-223 149-149 224-333 224-550 0-113-20-217-61-311q-61.5-141-192-264m-91 115c128 125 192 278 192 461 0 117-27 222-81 317-55 94-131 169-230 226s-203 85-312 85c-110 0-214-28-311-84-97-57-173-133-228-229-55-97-82-204-82-322 0-175 60-322 181-442 121-121 266-181 437-181 117 0 223 28 320 85L880 607h179z" horiz-adv-x="1784" unicode="Q"/><glyph d="M187 1471h293c163 0 274-7 332-20 87-20 158-63 213-128 55-66 82-147 82-243 0-80-19-150-56-211-38-61-92-106-162-137s-167-47-290-48L1128 0H946L418 684h-84V0H187m147 1327V827l253-2c98 0 171 9 218 28s83 49 110 90c26 41 39 86 39 137 0 49-13 94-40 135-27 40-62 69-105 86s-115 26-216 26z" horiz-adv-x="1243" unicode="R"/><glyph d="m27 274 125 75c88-162 190-243 305-243 49 0 96 12 139 35s76 53 99 92 34 80 34 123c0 49-17 98-50 145-46 65-130 144-252 236-123 93-199 160-229 201q-78 103.5-78 225c0 64 15 122 46 175s74 94 130 125c55 30 116 45 181 45q103.5 0 195-51c60-35 124-98 191-190l-120-91c-55 73-102 122-141 145s-82 35-128 35c-59 0-108-18-145-54-38-36-57-80-57-133 0-32 7-63 20-93s38-63 73-98c19-19 83-68 190-147 127-94 215-178 262-251s71-147 71-221c0-107-40-199-121-278S587-37 471-37q-133.5 0-243 72C155 82 88 162 27 274" horiz-adv-x="1020" unicode="S"/><glyph d="M33 1328v143h807v-143H512V0H362v1328z" horiz-adv-x="872" unicode="T"/><glyph d="M184 1471h147V583c0-105 2-171 6-197 7-58 24-106 51-145s68-72 123-98c55-27 111-40 167-40 49 0 95 10 140 31s82 49 112 86 52 81 66 133c10 37 15 114 15 230v888h147V583c0-131-13-237-38-318-26-81-77-152-154-212S795-37 686-37C567-37 466-9 381 48S240 180 211 273c-18 57-27 161-27 310z" horiz-adv-x="1341" unicode="U"/><glyph d="M67 1471h160L714 334l496 1137h160L730 0h-32z" horiz-adv-x="1438" unicode="V"/><glyph d="M96 1471h151L546 411l422 1060h30l417-1060 305 1060h150L1448 0h-28L984 1113 539 0h-28z" horiz-adv-x="1966" unicode="W"/><glyph d="M101 1471h172l352-574 355 574h170L712 758 1179 0h-172L625 617 241 0H69l469 758z" horiz-adv-x="1247" unicode="X"/><glyph d="M63 1471h170l376-606 370 606h170L683 703V0H538v703z" horiz-adv-x="1212" unicode="Y"/><glyph d="M122 1329v142h776L283 143h584V0H56l619 1329z" horiz-adv-x="983" unicode="Z"/><glyph d="M290 1508h336v-142H430V-261h196v-137H290z" horiz-adv-x="719" unicode="["/><glyph d="m220 1508 952-1708h-153L66 1508z" horiz-adv-x="1239" unicode="\"/><glyph d="M429-398H93v142h195v1627H93v137h336z" horiz-adv-x="719" unicode="]"/><glyph d="M629 1471h118l510-1106h-133l-439 952-436-952H120z" horiz-adv-x="1376" unicode="^"/><glyph d="M-12-154h1048v-102H-12z" horiz-adv-x="1024" unicode="_"/><glyph d="m326 1598 218-308H406l-295 308z" horiz-adv-x="774" unicode="`"/><glyph d="M1240 1088V0h-138v187c-59-71-124-125-197-161Q795.5-28 665-28c-154 0-285 56-394 168-109 111-164 247-164 407q0 235.5 165 402c110 111 242 167 397 167q133.5 0 243-57c72-38 135-95 190-171v200M680 981q-117 0-216-57c-66-39-118-93-157-162s-59-143-59-220 20-150 59-220 92-124 159-163c66-39 137-59 213-59 77 0 149 19 218 58s122 91 159 157 55 140 55 223c0 126-41 231-124 316S801 981 680 981" horiz-adv-x="1399" unicode="a"/><glyph d="M165 0v1508h139V901c59 72 124 126 197 162 73 35 152 53 239 53 154 0 286-56 395-167 109-112 163-248 163-407 0-157-55-292-165-403S891-28 736-28c-89 0-169 19-241 57s-136 95-191 171V0m421 107c78 0 150 19 216 58 66 38 119 92 158 161s58 143 58 220-20 151-59 221-92 125-158 164c-67 39-138 58-213 58-77 0-149-19-218-58s-122-92-159-158-56-140-56-223c0-126 42-231 125-316s185-127 306-127" horiz-adv-x="1397" unicode="b"/><glyph d="m1212 862-111-69c-96 127-227 191-393 191-133 0-243-43-330-128-88-85-132-189-132-311 0-79 20-154 61-224 40-70 95-124 166-163 70-39 149-58 236-58 160 0 291 64 392 191l111-73c-52-78-122-138-209-181-88-43-188-65-300-65-172 0-315 55-428 164S105 378 105 535c0 105 27 203 80 294 53 90 125 160 218 211s196 76 311 76c72 0 142-11 209-33s123-51 170-86 86-80 119-135" horiz-adv-x="1325" unicode="c"/><glyph d="M1242 1508V0h-138v187c-59-71-124-125-197-161Q797.5-28 667-28c-154 0-285 56-394 168-109 111-164 247-164 407q0 235.5 165 402c110 111 242 167 397 167q133.5 0 243-57c72-38 135-95 190-171v620M682 981q-117 0-216-57c-66-39-118-93-157-162s-59-143-59-220 20-150 59-220 92-124 159-163c66-39 137-59 213-59 77 0 149 19 218 58s122 91 159 157 55 140 55 223c0 126-41 231-124 316S803 981 682 981" horiz-adv-x="1403" unicode="d"/><glyph d="m1072 361 118-62c-39-76-83-137-134-184S948 33 885 9c-63-25-135-37-215-37-177 0-316 58-416 175-100 116-150 247-150 394 0 138 42 261 127 369 107 137 251 206 431 206 185 0 333-70 444-211q118.5-148.5 120-372H248c3-127 43-230 121-311s174-122 289-122c55 0 109 10 162 29 52 19 96 45 133 77s76 84 119 155m0 293c-19 75-46 134-81 179-36 45-83 81-142 108s-120 41-185 41c-107 0-198-34-275-103-56-50-98-125-127-225z" horiz-adv-x="1331" unicode="e"/><glyph d="M604 1508v-137q-76.5 33-132 33c-27 0-50-5-68-16s-29-24-34-38c-5-15-7-53-7-115v-147h227V968H362V0H222v968H79v120h143v170c0 78 7 134 22 167 14 33 38 60 73 81 34 20 75 30 124 30 45 0 100-9 163-28" horiz-adv-x="643" unicode="f"/><glyph d="M1093 1088h141V221c0-153-13-264-40-335-37-100-100-177-191-231q-136.5-81-327-81c-93 0-177 13-251 40-75 26-135 61-182 106-47 44-90 109-129 194h152c41-72 95-125 160-160s146-52 243-52c95 0 176 18 242 54 65 35 112 80 140 134q42 81 42 261v56c-53-67-117-118-193-153C824 18 743 0 658 0Q508 0 376 75c-88 49-156 116-204 200s-72 176-72 277q0 151.5 75 282c50 87 119 155 208 206 88 51 181 76 279 76 81 0 157-17 228-50 70-34 138-90 203-167m-413 82c-79 0-153-19-221-57-68-39-121-92-160-159-39-68-58-141-58-220 0-119 40-218 120-296s184-117 311-117c129 0 232 39 311 116 78 77 117 179 117 305 0 82-18 155-54 220-36 64-87 115-153 152s-137 56-213 56" horiz-adv-x="1378" unicode="g"/><glyph d="M156 1508h140V893c57 75 119 131 187 168s142 55 221 55c81 0 154-21 217-62s109-97 139-166c30-70 45-179 45-328V0H965v519c0 125-5 209-15 251-17 72-49 126-94 163q-69 54-180 54c-85 0-160-28-227-84S337 778 316 695c-13-53-20-152-20-296V0H156z" horiz-adv-x="1249" unicode="h"/><glyph d="M205 1536c32 0 59-11 82-34s34-50 34-82c0-31-11-58-34-81s-50-34-82-34c-31 0-58 11-81 34s-34 50-34 81c0 32 11 59 34 82s50 34 81 34m-70-448h141V0H135z" horiz-adv-x="410" unicode="i"/><glyph d="M208 1536c32 0 59-11 82-34 22-23 33-50 33-82q0-46.5-33-81c-23-23-50-34-82-34s-59 11-81 34c-23 23-34 50-34 81 0 32 11 59 34 82 22 23 49 34 81 34m-69-448h142V-164c0-91-16-158-49-199-33-42-79-63-136-63-47 0-101 11-160 34v126c37-19 71-29 101-29 38 0 66 16 85 47 11 20 17 62 17 125z" horiz-adv-x="416" unicode="j"/><glyph d="M155 1508h141V650l503 438h206L408 569 1040 0H842L296 489V0H155z" horiz-adv-x="1028" unicode="k"/><glyph d="M135 1508h140V0H135z" horiz-adv-x="410" unicode="l"/><glyph d="M155 1088h139V900c49 69 99 120 150 152 71 43 145 64 223 64 53 0 103-10 150-31s86-48 116-82c30-35 56-84 78-148 47 85 105 150 175 195 70 44 145 66 226 66 75 0 142-19 200-57 57-38 100-91 128-159q42-102 42-306V0h-143v594c0 117-8 197-25 241-17 43-45 78-85 105-41 27-89 40-145 40q-102 0-186-60c-57-40-98-93-124-160s-39-178-39-334V0H896v557c0 131-8 221-24 268-17 47-45 84-86 113-41 28-89 42-145 42-65 0-125-19-181-58-57-39-98-92-125-158s-41-167-41-303V0H155z" horiz-adv-x="1921" unicode="m"/><glyph d="M156 1088h140V893q84 112.5 186 168c68 37 142 55 222 55 81 0 154-21 217-62s109-97 139-167q45-105 45-327V0H966v519c0 125-5 209-16 251-17 72-48 126-94 163q-69 54-180 54c-85 0-160-28-227-84S337 778 316 695c-13-54-20-153-20-296V0H156z" horiz-adv-x="1249" unicode="n"/><glyph d="M671 1116c167 0 306-61 416-182q150-166.5 150-393c0-152-53-285-158-398Q920-28 671-28q-250.5 0-408 171C157 256 104 389 104 541c0 151 50 281 150 392q165 183 417 183m0-137c-116 0-216-43-299-129S247 660 247 538c0-79 19-152 57-220s89-120 154-157 136-56 213-56 148 19 213 56 116 89 154 157 57 141 57 220c0 122-42 226-125 312-84 86-184 129-299 129" horiz-adv-x="1341" unicode="o"/><glyph d="M158 1088h139V888c55 76 119 133 191 171s152 57 241 57c155 0 287-56 397-167q165-166.5 165-402c0-160-54-296-163-407C1019 28 887-28 733-28c-87 0-166 18-239 54s-138 90-197 161v-585H158M718 981c-121 0-223-42-306-127S287 664 287 538c0-83 19-157 56-223s90-118 159-157 141-58 218-58c75 0 146 20 213 59 66 39 119 93 158 163s59 143 59 220-19 151-58 220-92 123-158 162q-99 57-216 57" horiz-adv-x="1397" unicode="p"/><glyph d="M1239 1088V-398h-138v585c-59-71-124-125-197-161Q794.5-28 664-28c-154 0-285 56-394 168-109 111-164 247-164 407q0 235.5 165 402c110 111 242 167 397 167q133.5 0 243-57c72-38 135-95 190-171v200M679 981q-117 0-216-57c-66-39-118-93-157-162s-59-143-59-220 20-150 59-220 92-124 159-163c66-39 137-59 213-59 77 0 149 19 218 58s122 91 159 157 55 140 55 223c0 126-41 231-124 316S800 981 679 981" horiz-adv-x="1397" unicode="q"/><glyph d="M103 1088h143V929q64.5 94.5 135 141c47 31 97 46 148 46 39 0 80-12 124-37l-73-118c-29 13-54 19-74 19q-70.5 0-135-57c-43-39-76-98-99-179-17-62-26-187-26-376V0H103z" horiz-adv-x="616" unicode="r"/><glyph d="m703 969-90-93c-75 73-148 109-219 109-45 0-84-15-116-45-33-30-49-65-49-105 0-35 13-69 40-101 27-33 83-71 168-115 104-54 175-106 212-156 37-51 55-108 55-171 0-89-31-165-94-227S469-28 375-28c-63 0-122 14-179 41S91 78 54 126l88 100c71-81 147-121 227-121 56 0 104 18 143 54s59 78 59 127c0 40-13 76-39 107s-85 69-176 116c-98 51-165 101-200 150s-53 106-53 169c0 83 28 151 85 206 56 55 127 82 213 82 100 0 201-49 302-147" horiz-adv-x="795" unicode="s"/><glyph d="M278 1492h141v-404h222V968H419V0H278v968H87v120h191z" horiz-adv-x="694" unicode="t"/><glyph d="M138 1088h141V580c0-124 7-209 20-256 20-67 58-119 115-158 56-39 123-58 201-58s144 19 199 57c54 37 91 87 112 148q21 63 21 267v508h143V554c0-150-17-263-52-339S950 80 880 37C809-6 721-28 615-28S421-6 350 37q-106.5 64.5-159 180c-35 77-53 192-53 347z" horiz-adv-x="1245" unicode="u"/><glyph d="M53 1088h149l364-792 361 792h150L579 0h-25z" horiz-adv-x="1135" unicode="v"/><glyph d="M9 1088h144l333-790 349 790h25l348-790 339 790h146L1221 0h-27L848 779 499 0h-26z" horiz-adv-x="1702" unicode="w"/><glyph d="M32 1088h168l288-403 288 403h168L572 571 991 0H821L488 457 160 0H-7l412 571z" horiz-adv-x="983" unicode="x"/><glyph d="M39 1088h148l374-838 363 838h149L424-398H276L486 82z" horiz-adv-x="1098" unicode="y"/><glyph d="M67 1088h799L250 124h596V0H9l616 965H67z" horiz-adv-x="870" unicode="z"/><glyph d="M75 591q61.5 1.5 99 24c33 19 58 46 75 80q25.5 51 30 144c1 31 3 101 4 211s8 189 21 236 34 85 62 113 64 48 107 61c26 7 68 11 125 11h56v-157h-31c-70 0-116-13-138-38-23-26-34-82-34-168 0-155-2-254-7-297-9-82-28-145-58-188-31-44-79-82-144-113 73-31 127-78 160-141s49-167 49-310c0-128 1-204 4-227 4-36 12-64 25-83 9-13 24-24 45-31q30-12 129-12v-157h-56c-67 0-115 6-146 17-45 17-80 44-107 81s-45 86-53 148c-6 44-9 126-10 246-1 123-7 206-20 249s-36 77-67 101c-31 23-71 36-120 37z" horiz-adv-x="719" unicode="{"/><glyph d="M616 1508h143V-398H616z" horiz-adv-x="1376" unicode="|"/><glyph d="M644 591V428c-41-1-74-8-99-23-33-19-57-46-74-80s-28-82-31-144c-1-31-2-101-3-211-1-111-9-189-22-236s-34-85-62-113c-28-29-64-49-107-61-26-7-68-11-125-11H65v157h31c70 0 116 13 139 38 22 25 33 81 33 167 0 159 3 261 8 304 9 81 31 144 64 189s78 81 137 106c-78 37-132 87-163 148s-46 161-46 302c0 147-3 234-9 259-7 34-21 58-42 73s-62 22-121 22H65v157h56c67 0 115-6 146-18 45-16 81-43 108-80s44-87 52-148c6-44 9-126 10-246q1.5-184.5 21-249c13-44 35-78 66-101 31-24 71-37 120-38" horiz-adv-x="719" unicode="}"/><glyph d="M1128 837V675c-75-42-128-68-160-79-33-11-63-17-92-17-63 0-152 26-265 77q-132 60-168 72c-25 7-48 11-69 11-29 0-62-6-97-19s-90-41-165-86v160c73 41 126 68 159 79s64 17 95 17c65 0 154-27 268-81q118.5-55.5 162-69c29-9 55-14 78-14 28 0 56 6 85 17s85 42 169 94" horiz-adv-x="1241" unicode="~"/><glyph d="M780 1471 1466 0h-158l-231 484H443L213 0H49l695 1471m18-312L509 626h503M554 1816c32 0 59-11 82-34s34-50 34-82-11-59-34-82-50-34-82-34-59 11-82 34-34 50-34 82 11 59 34 82 50 34 82 34m408 0c32 0 59-11 82-34s34-50 34-82-11-59-34-82-50-34-82-34-59 11-82 34-34 50-34 82 11 59 34 82 50 34 82 34" horiz-adv-x="1515" unicode="Ä"/><glyph d="M780 1471 1466 0h-158l-231 484H443L213 0H49l695 1471m18-312L509 626h503M757 1989c59 0 109-21 151-62 41-42 62-93 62-152s-21-109-62-150c-41-42-92-63-151-63q-88.5 0-150 63-63 61.5-63 150c0 59 21 110 63 152 41 41 91 62 150 62m-1-101c-31 0-57-11-78-32-21-22-32-48-32-78s11-56 32-77q31.5-33 78-33c30 0 56 11 77 33 21 21 32 47 32 77s-11 56-32 78c-21 21-47 32-77 32" horiz-adv-x="1515" unicode="Å"/><glyph d="m1549 1198-116-89c-64 83-141 147-230 190-90 43-189 64-296 64-117 0-226-28-326-84-100-57-177-132-232-227s-83-202-83-321c0-179 62-329 185-449q184.5-180 465-180c206 0 378 81 517 242l116-88c-73-93-165-165-274-216-110-51-233-77-368-77-257 0-460 86-609 257-125 145-187 319-187 524 0 215 76 397 227 544s340 220 567 220q205.5 0 372-81c111-55 201-131 272-229M811 0h88l-17-118c15 2 28 3 38 3 33 0 60-10 82-30 22-21 33-46 33-77 0-44-20-81-60-112s-96-46-169-46c-59 0-115 10-167 30l22 69c43-13 83-20 120-20 50 0 85 6 105 19 20 12 30 27 30 46 0 11-5 21-16 30s-27 13-46 13c-16 0-39-3-70-9z" horiz-adv-x="1665" unicode="Ç"/><glyph d="M180 1471h843v-145H327V866h690V722H327V145h690V0H180m497 1895h215l-295-308H459z" horiz-adv-x="1098" unicode="É"/><glyph d="M180 0v1471h32l978-1126v1126h145V0h-33L332 1112V0m722 1789 70-97c-48-35-88-58-121-70q-49.5-18-105-18c-48 0-97 12-148 37-43 21-71 34-83 37-16 5-33 7-52 7q-34.5 0-66-12c-21-9-52-28-92-57l-66 102c61 65 136 97 225 97 43 0 94-13 153-40 57-26 101-39 134-39 37 0 87 18 151 53" horiz-adv-x="1515" unicode="Ñ"/><glyph d="M880 1508c223 0 409-74 559-223q225-223.5 225-549c0-215-75-398-224-548C1290 38 1107-37 892-37c-218 0-402 75-552 224S115 517 115 729c0 141 34 272 103 393 68 121 161 215 279 284 118 68 246 102 383 102m7-144c-109 0-212-28-309-85s-173-133-228-229-82-203-82-321c0-175 61-322 182-442 121-121 266-181 437-181 114 0 220 28 317 83s172 131 227 227c54 96 81 203 81 320s-27 222-81 317c-55 94-131 169-230 226s-203 85-314 85m-201 452c32 0 59-11 82-34s34-50 34-82-11-59-34-82-50-34-82-34-59 11-82 34-34 50-34 82 11 59 34 82 50 34 82 34m408 0c32 0 59-11 82-34s34-50 34-82-11-59-34-82-50-34-82-34-59 11-82 34-34 50-34 82 11 59 34 82 50 34 82 34" horiz-adv-x="1780" unicode="Ö"/><glyph d="M184 1471h147V583c0-105 2-171 6-197 7-58 24-106 51-145s68-72 123-98c55-27 111-40 167-40 49 0 95 10 140 31s82 49 112 86 52 81 66 133c10 37 15 114 15 230v888h147V583c0-131-13-237-38-318-26-81-77-152-154-212S795-37 686-37C567-37 466-9 381 48S240 180 211 273c-18 57-27 161-27 310m283 1233c32 0 59-11 82-34s34-50 34-82-11-59-34-82-50-34-82-34-59 11-82 34-34 50-34 82 11 59 34 82 50 34 82 34m408 0c32 0 59-11 82-34s34-50 34-82-11-59-34-82-50-34-82-34-59 11-82 34-34 50-34 82 11 59 34 82 50 34 82 34" horiz-adv-x="1341" unicode="Ü"/><glyph d="M1240 1088V0h-138v187c-59-71-124-125-197-161Q795.5-28 665-28c-154 0-285 56-394 168-109 111-164 247-164 407q0 235.5 165 402c110 111 242 167 397 167q133.5 0 243-57c72-38 135-95 190-171v200M680 981q-117 0-216-57c-66-39-118-93-157-162s-59-143-59-220 20-150 59-220 92-124 159-163c66-39 137-59 213-59 77 0 149 19 218 58s122 91 159 157 55 140 55 223c0 126-41 231-124 316S801 981 680 981m87 617h215l-295-308H549z" horiz-adv-x="1399" unicode="á"/><glyph d="M1240 1088V0h-138v187c-59-71-124-125-197-161Q795.5-28 665-28c-154 0-285 56-394 168-109 111-164 247-164 407q0 235.5 165 402c110 111 242 167 397 167q133.5 0 243-57c72-38 135-95 190-171v200M680 981q-117 0-216-57c-66-39-118-93-157-162s-59-143-59-220 20-150 59-220 92-124 159-163c66-39 137-59 213-59 77 0 149 19 218 58s122 91 159 157 55 140 55 223c0 126-41 231-124 316S801 981 680 981m-41 617 218-308H719l-295 308z" horiz-adv-x="1399" unicode="à"/><glyph d="M1240 1088V0h-138v187c-59-71-124-125-197-161Q795.5-28 665-28c-154 0-285 56-394 168-109 111-164 247-164 407q0 235.5 165 402c110 111 242 167 397 167q133.5 0 243-57c72-38 135-95 190-171v200M680 981q-117 0-216-57c-66-39-118-93-157-162s-59-143-59-220 20-150 59-220 92-124 159-163c66-39 137-59 213-59 77 0 149 19 218 58s122 91 159 157 55 140 55 223c0 126-41 231-124 316S801 981 680 981m-47 561h139l290-257H882l-176 152-184-152H336z" horiz-adv-x="1399" unicode="â"/><glyph d="M1240 1088V0h-138v187c-59-71-124-125-197-161Q795.5-28 665-28c-154 0-285 56-394 168-109 111-164 247-164 407q0 235.5 165 402c110 111 242 167 397 167q133.5 0 243-57c72-38 135-95 190-171v200M680 981q-117 0-216-57c-66-39-118-93-157-162s-59-143-59-220 20-150 59-220 92-124 159-163c66-39 137-59 213-59 77 0 149 19 218 58s122 91 159 157 55 140 55 223c0 126-41 231-124 316S801 981 680 981m-184 537c32 0 59-11 82-34s34-50 34-82-11-59-34-82-50-34-82-34-59 11-82 34-34 50-34 82 11 59 34 82 50 34 82 34m408 0c32 0 59-11 82-34s34-50 34-82-11-59-34-82-50-34-82-34-59 11-82 34-34 50-34 82 11 59 34 82 50 34 82 34" horiz-adv-x="1399" unicode="ä"/><glyph d="M1240 1088V0h-138v187c-59-71-124-125-197-161Q795.5-28 665-28c-154 0-285 56-394 168-109 111-164 247-164 407q0 235.5 165 402c110 111 242 167 397 167q133.5 0 243-57c72-38 135-95 190-171v200M680 981q-117 0-216-57c-66-39-118-93-157-162s-59-143-59-220 20-150 59-220 92-124 159-163c66-39 137-59 213-59 77 0 149 19 218 58s122 91 159 157 55 140 55 223c0 126-41 231-124 316S801 981 680 981m316 511 70-97c-48-35-88-58-121-70q-49.5-18-105-18c-48 0-97 12-148 37-43 21-71 34-83 37-16 5-33 7-52 7q-34.5 0-66-12c-21-9-52-28-92-57l-66 102c61 65 136 97 225 97 43 0 94-13 153-40 57-26 101-39 134-39 37 0 87 18 151 53" horiz-adv-x="1399" unicode="ã"/><glyph d="M1240 1088V0h-138v187c-59-71-124-125-197-161Q795.5-28 665-28c-154 0-285 56-394 168-109 111-164 247-164 407q0 235.5 165 402c110 111 242 167 397 167q133.5 0 243-57c72-38 135-95 190-171v200M680 981q-117 0-216-57c-66-39-118-93-157-162s-59-143-59-220 20-150 59-220 92-124 159-163c66-39 137-59 213-59 77 0 149 19 218 58s122 91 159 157 55 140 55 223c0 126-41 231-124 316S801 981 680 981m19 710c59 0 109-21 151-62 41-42 62-93 62-152s-21-109-62-150c-41-42-92-63-151-63q-88.5 0-150 63-63 61.5-63 150c0 59 21 110 63 152 41 41 91 62 150 62m-1-101c-31 0-57-11-78-32-21-22-32-48-32-78s11-56 32-77q31.5-33 78-33c30 0 56 11 77 33 21 21 32 47 32 77s-11 56-32 78c-21 21-47 32-77 32" horiz-adv-x="1399" unicode="å"/><glyph d="m1212 862-111-69c-96 127-227 191-393 191-133 0-243-43-330-128-88-85-132-189-132-311 0-79 20-154 61-224 40-70 95-124 166-163 70-39 149-58 236-58 160 0 291 64 392 191l111-73c-52-78-122-138-209-181-88-43-188-65-300-65-172 0-315 55-428 164S105 378 105 535c0 105 27 203 80 294 53 90 125 160 218 211s196 76 311 76c72 0 142-11 209-33s123-51 170-86 86-80 119-135M642 0h88l-17-118c15 2 28 3 38 3 33 0 60-10 82-30 22-21 33-46 33-77 0-44-20-81-60-112s-96-46-169-46c-59 0-115 10-167 30l22 69c43-13 83-20 120-20 50 0 85 6 105 19 20 12 30 27 30 46 0 11-5 21-16 30s-27 13-46 13c-16 0-39-3-70-9z" horiz-adv-x="1325" unicode="ç"/><glyph d="m1072 361 118-62c-39-76-83-137-134-184S948 33 885 9c-63-25-135-37-215-37-177 0-316 58-416 175-100 116-150 247-150 394 0 138 42 261 127 369 107 137 251 206 431 206 185 0 333-70 444-211q118.5-148.5 120-372H248c3-127 43-230 121-311s174-122 289-122c55 0 109 10 162 29 52 19 96 45 133 77s76 84 119 155m0 293c-19 75-46 134-81 179-36 45-83 81-142 108s-120 41-185 41c-107 0-198-34-275-103-56-50-98-125-127-225m472 944h215l-295-308H516z" horiz-adv-x="1331" unicode="é"/><glyph d="m1072 361 118-62c-39-76-83-137-134-184S948 33 885 9c-63-25-135-37-215-37-177 0-316 58-416 175-100 116-150 247-150 394 0 138 42 261 127 369 107 137 251 206 431 206 185 0 333-70 444-211q118.5-148.5 120-372H248c3-127 43-230 121-311s174-122 289-122c55 0 109 10 162 29 52 19 96 45 133 77s76 84 119 155m0 293c-19 75-46 134-81 179-36 45-83 81-142 108s-120 41-185 41c-107 0-198-34-275-103-56-50-98-125-127-225m343 944 218-308H685l-295 308z" horiz-adv-x="1331" unicode="è"/><glyph d="m1072 361 118-62c-39-76-83-137-134-184S948 33 885 9c-63-25-135-37-215-37-177 0-316 58-416 175-100 116-150 247-150 394 0 138 42 261 127 369 107 137 251 206 431 206 185 0 333-70 444-211q118.5-148.5 120-372H248c3-127 43-230 121-311s174-122 289-122c55 0 109 10 162 29 52 19 96 45 133 77s76 84 119 155m0 293c-19 75-46 134-81 179-36 45-83 81-142 108s-120 41-185 41c-107 0-198-34-275-103-56-50-98-125-127-225m338 888h139l290-257H849l-176 152-184-152H303z" horiz-adv-x="1331" unicode="ê"/><glyph d="m1072 361 118-62c-39-76-83-137-134-184S948 33 885 9c-63-25-135-37-215-37-177 0-316 58-416 175-100 116-150 247-150 394 0 138 42 261 127 369 107 137 251 206 431 206 185 0 333-70 444-211q118.5-148.5 120-372H248c3-127 43-230 121-311s174-122 289-122c55 0 109 10 162 29 52 19 96 45 133 77s76 84 119 155m0 293c-19 75-46 134-81 179-36 45-83 81-142 108s-120 41-185 41c-107 0-198-34-275-103-56-50-98-125-127-225m200 864c32 0 59-11 82-34s34-50 34-82-11-59-34-82-50-34-82-34-59 11-82 34-34 50-34 82 11 59 34 82 50 34 82 34m408 0c32 0 59-11 82-34s34-50 34-82-11-59-34-82-50-34-82-34-59 11-82 34-34 50-34 82 11 59 34 82 50 34 82 34" horiz-adv-x="1331" unicode="ë"/><glyph d="M135 1088h141V0H135m138 1598h215l-295-308H55z" horiz-adv-x="410" unicode="í"/><glyph d="M135 1088h141V0H135m9 1598 218-308H224l-295 308z" horiz-adv-x="410" unicode="ì"/><glyph d="M135 1088h141V0H135m4 1542h139l290-257H388l-176 152-184-152h-186z" horiz-adv-x="410" unicode="î"/><glyph d="M135 1088h141V0H135M1 1518c32 0 59-11 82-34s34-50 34-82-11-59-34-82-50-34-82-34-59 11-82 34-34 50-34 82 11 59 34 82 50 34 82 34m408 0c32 0 59-11 82-34s34-50 34-82-11-59-34-82-50-34-82-34-59 11-82 34-34 50-34 82 11 59 34 82 50 34 82 34" horiz-adv-x="410" unicode="ï"/><glyph d="M156 1088h140V893q84 112.5 186 168c68 37 142 55 222 55 81 0 154-21 217-62s109-97 139-167q45-105 45-327V0H966v519c0 125-5 209-16 251-17 72-48 126-94 163q-69 54-180 54c-85 0-160-28-227-84S337 778 316 695c-13-54-20-153-20-296V0H156m765 1492 70-97c-48-35-88-58-121-70q-49.5-18-105-18c-48 0-97 12-148 37-43 21-71 34-83 37-16 5-33 7-52 7q-34.5 0-66-12c-21-9-52-28-92-57l-66 102c61 65 136 97 225 97 43 0 94-13 153-40 57-26 101-39 134-39 37 0 87 18 151 53" horiz-adv-x="1249" unicode="ñ"/><glyph d="M671 1116c167 0 306-61 416-182q150-166.5 150-393c0-152-53-285-158-398Q920-28 671-28q-250.5 0-408 171C157 256 104 389 104 541c0 151 50 281 150 392q165 183 417 183m0-137c-116 0-216-43-299-129S247 660 247 538c0-79 19-152 57-220s89-120 154-157 136-56 213-56 148 19 213 56 116 89 154 157 57 141 57 220c0 122-42 226-125 312-84 86-184 129-299 129m68 619h215l-295-308H521z" horiz-adv-x="1341" unicode="ó"/><glyph d="M671 1116c167 0 306-61 416-182q150-166.5 150-393c0-152-53-285-158-398Q920-28 671-28q-250.5 0-408 171C157 256 104 389 104 541c0 151 50 281 150 392q165 183 417 183m0-137c-116 0-216-43-299-129S247 660 247 538c0-79 19-152 57-220s89-120 154-157 136-56 213-56 148 19 213 56 116 89 154 157 57 141 57 220c0 122-42 226-125 312-84 86-184 129-299 129m-61 619 218-308H690l-295 308z" horiz-adv-x="1341" unicode="ò"/><glyph d="M671 1116c167 0 306-61 416-182q150-166.5 150-393c0-152-53-285-158-398Q920-28 671-28q-250.5 0-408 171C157 256 104 389 104 541c0 151 50 281 150 392q165 183 417 183m0-137c-116 0-216-43-299-129S247 660 247 538c0-79 19-152 57-220s89-120 154-157 136-56 213-56 148 19 213 56 116 89 154 157 57 141 57 220c0 122-42 226-125 312-84 86-184 129-299 129m-66 563h139l290-257H854l-176 152-184-152H308z" horiz-adv-x="1341" unicode="ô"/><glyph d="M671 1116c167 0 306-61 416-182q150-166.5 150-393c0-152-53-285-158-398Q920-28 671-28q-250.5 0-408 171C157 256 104 389 104 541c0 151 50 281 150 392q165 183 417 183m0-137c-116 0-216-43-299-129S247 660 247 538c0-79 19-152 57-220s89-120 154-157 136-56 213-56 148 19 213 56 116 89 154 157 57 141 57 220c0 122-42 226-125 312-84 86-184 129-299 129m-204 539c32 0 59-11 82-34s34-50 34-82-11-59-34-82-50-34-82-34-59 11-82 34-34 50-34 82 11 59 34 82 50 34 82 34m408 0c32 0 59-11 82-34s34-50 34-82-11-59-34-82-50-34-82-34-59 11-82 34-34 50-34 82 11 59 34 82 50 34 82 34" horiz-adv-x="1341" unicode="ö"/><glyph d="M671 1116c167 0 306-61 416-182q150-166.5 150-393c0-152-53-285-158-398Q920-28 671-28q-250.5 0-408 171C157 256 104 389 104 541c0 151 50 281 150 392q165 183 417 183m0-137c-116 0-216-43-299-129S247 660 247 538c0-79 19-152 57-220s89-120 154-157 136-56 213-56 148 19 213 56 116 89 154 157 57 141 57 220c0 122-42 226-125 312-84 86-184 129-299 129m296 513 70-97c-48-35-88-58-121-70q-49.5-18-105-18c-48 0-97 12-148 37-43 21-71 34-83 37-16 5-33 7-52 7q-34.5 0-66-12c-21-9-52-28-92-57l-66 102c61 65 136 97 225 97 43 0 94-13 153-40 57-26 101-39 134-39 37 0 87 18 151 53" horiz-adv-x="1341" unicode="õ"/><glyph d="M138 1088h141V580c0-124 7-209 20-256 20-67 58-119 115-158 56-39 123-58 201-58s144 19 199 57c54 37 91 87 112 148q21 63 21 267v508h143V554c0-150-17-263-52-339S950 80 880 37C809-6 721-28 615-28S421-6 350 37q-106.5 64.5-159 180c-35 77-53 192-53 347m552 1034h215l-295-308H472z" horiz-adv-x="1245" unicode="ú"/><glyph d="M138 1088h141V580c0-124 7-209 20-256 20-67 58-119 115-158 56-39 123-58 201-58s144 19 199 57c54 37 91 87 112 148q21 63 21 267v508h143V554c0-150-17-263-52-339S950 80 880 37C809-6 721-28 615-28S421-6 350 37q-106.5 64.5-159 180c-35 77-53 192-53 347m423 1034 218-308H641l-295 308z" horiz-adv-x="1245" unicode="ù"/><glyph d="M138 1088h141V580c0-124 7-209 20-256 20-67 58-119 115-158 56-39 123-58 201-58s144 19 199 57c54 37 91 87 112 148q21 63 21 267v508h143V554c0-150-17-263-52-339S950 80 880 37C809-6 721-28 615-28S421-6 350 37q-106.5 64.5-159 180c-35 77-53 192-53 347m418 978h139l290-257H805l-176 152-184-152H259z" horiz-adv-x="1245" unicode="û"/><glyph d="M138 1088h141V580c0-124 7-209 20-256 20-67 58-119 115-158 56-39 123-58 201-58s144 19 199 57c54 37 91 87 112 148q21 63 21 267v508h143V554c0-150-17-263-52-339S950 80 880 37C809-6 721-28 615-28S421-6 350 37q-106.5 64.5-159 180c-35 77-53 192-53 347m280 954c32 0 59-11 82-34s34-50 34-82-11-59-34-82-50-34-82-34-59 11-82 34-34 50-34 82 11 59 34 82 50 34 82 34m408 0c32 0 59-11 82-34s34-50 34-82-11-59-34-82-50-34-82-34-59 11-82 34-34 50-34 82 11 59 34 82 50 34 82 34" horiz-adv-x="1245" unicode="ü"/><glyph d="M489 1508h149l-23-457 360 21V923l-360 26 27-1263H489l29 1263-361-26v149l361-21z" horiz-adv-x="1133" unicode="†"/><glyph d="M755 1164c0-97-34-178-101-244-67-67-149-100-245-100s-177 33-244 100-100 149-100 247c0 94 34 174 103 241 68 67 149 100 244 100s176-33 243-100 100-148 100-244m-119-2c0 68-22 125-65 171s-96 69-158 69c-63 0-116-23-161-69-45-47-68-103-68-169 0-65 23-120 68-167s99-71 160-71 114 23 158 69 66 102 66 167" horiz-adv-x="819" unicode="°"/><glyph d="m961 1340 121-60-132-257c48-31 87-62 116-94l-85-105c-31 29-62 55-95 76L492 134c50-21 98-32 144-32 97 0 199 43 306 128l91-106C981 78 920 41 849 14c-71-28-141-42-212-42-64 0-133 12-208 37L277-286l-117 64L311 79c-72 65-125 134-158 209s-50 157-50 247c0 160 50 297 151 411 100 113 231 170 393 170 60 0 120-11 181-33m-63-122c-43 14-83 21-121 21q-171 0-285-120c-77-81-115-187-115-319 0-73 11-136 33-191s55-102 100-143z" horiz-adv-x="1135" unicode="¢"/><glyph d="M99 844h254c-36 128-56 204-60 227-7 38-11 74-11 108 0 89 35 167 104 232s155 97 257 97c67 0 124-14 172-42q70.5-43.5 117-123c31-54 50-127 57-218H853c-3 81-22 142-59 185s-86 64-147 64c-67 0-122-19-163-56-41-38-62-88-62-149 0-54 10-108 29-163l7-18 45-144h320V715H537c25-84 37-172 37-264 0-71-7-134-22-188 41-34 96-72 166-115 40-24 77-36 110-36 63 0 99 77 106 232h141c1-78-10-148-33-211S990 26 957 1s-71-38-112-38c-45 0-93 12-145 35-72 32-138 74-197 125C448 16 369-37 266-37c-64 0-115 17-152 51-38 33-57 79-57 137 0 64 22 119 66 164s96 68 156 68q67.5 0 144-39c5 45 7 80 7 106 0 94-15 182-45 265H99m286-508c-45 27-83 41-114 41-22 0-40-7-55-22s-22-33-22-55c0-21 7-39 20-53 13-15 28-22 47-22 50 0 91 37 124 111" horiz-adv-x="1135" unicode="£"/><glyph d="M964 1194H817c-7 63-31 112-72 148-41 35-94 53-159 53-71 0-126-17-166-52-41-35-61-77-61-128 0-29 6-56 19-81 17-33 45-66 83-98 38-33 104-77 198-133 110-66 185-116 224-151s68-72 87-113 29-80 29-119c0-67-26-129-77-186-52-57-122-93-209-110 71-44 125-96 162-155s56-120 56-181c0-88-34-162-102-223s-157-91-267-91c-109 0-199 28-271 83S176-219 162-138h148c15-43 38-76 67-99 48-39 107-58 176-58 70 0 126 18 168 53 41 35 62 78 62 128 0 45-17 89-50 132S623 120 503 197Q330.5 306.5 293 335c-56 43-97 89-123 136-27 47-40 96-40 145 0 42 10 83 31 124 21 40 50 75 88 106 37 30 84 53 141 70-66 47-112 95-138 143-27 48-40 101-40 160 0 93 34 169 101 228s157 89 271 89c111 0 199-29 264-88s104-144 116-254M507 839c-73-11-130-36-170-75-41-39-61-86-61-141 0-49 18-93 53-133 46-53 135-114 267-184 81 10 145 36 190 77s67 87 67 140c0 41-16 79-47 114s-126 99-285 193z" horiz-adv-x="1259" unicode="§"/><glyph d="M620 1053c85 0 157-30 217-90s90-132 90-217-30-158-90-218-132-90-217-90-157 30-217 90-90 133-90 218 30 157 90 217 132 90 217 90" horiz-adv-x="1241" unicode="•"/><glyph d="M483-231v937c-50 0-87 3-111 8-52 11-99 34-141 68-42 33-75 78-100 135-25 56-37 119-37 188 0 126 39 229 116 308 65 67 164 100 299 100h513v-75h-84V-231H819v1669H602V-231z" horiz-adv-x="1155" unicode="¶"/><glyph d="M162 0v995c0 151 15 258 44 322s76 117 143 158c66 41 144 61 234 61 118 0 213-34 286-103 72-69 108-155 108-259 0-66-17-125-50-176s-80-92-139-123c-33-17-78-29-137-37 65-10 114-24 149-42 72-38 128-90 169-157s61-144 61-231c0-128-39-233-117-314S735-28 613-28c-82 0-151 16-208 49v133c70-33 133-49 188-49 85 0 156 29 213 86 56 57 84 130 84 221 0 101-34 183-101 246-68 63-166 97-294 101v157h32c93 0 167 25 223 74s84 108 84 178c0 66-23 121-70 166s-106 67-178 67c-57 0-109-15-156-46s-82-73-103-125c-16-41-24-123-24-248V0z" horiz-adv-x="1135" unicode="ß"/><glyph d="M1551 760q0-211.5-105-393T1158 79C1036 8 905-27 766-27S496 8 374 79C252 149 156 245 86 366 15 487-20 617-20 756c0 140 35 271 106 394 70 123 166 219 288 289 121 70 252 105 392 105s271-35 392-104c121-70 216-166 287-289s106-253 106-391m-109-1c0 120-30 233-91 339-61 105-143 188-247 249s-216 91-336 91c-121 0-234-30-339-91q-159-91.5-249-249c-61-106-91-220-91-341s30-233 91-338c60-105 143-187 249-248s219-91 339-91c119 0 231 31 336 92s187 143 248 248q90 156 90 339M439 1217h377c88 0 151-9 190-26 39-18 70-47 95-87 24-40 36-87 36-140 0-46-9-86-26-119q-19.5-37.5-87-81c41-20 68-43 82-69 14-27 21-72 21-136V457c0-48 11-88 32-120l15-24h-160c-10 37-17 82-21 133l-7 111c-3 41-9 69-19 86-11 17-25 29-44 36s-57 11-114 11H582V313H439m143 774V819h222c67 0 113 8 137 23 35 22 53 59 53 112 0 46-13 80-38 101s-73 32-143 32z" horiz-adv-x="1530" unicode="®"/><glyph d="M1551 757c0-141-35-271-105-392s-166-216-287-286C1037 8 906-27 766-27S495 8 373 79C251 149 155 245 85 366S-20 617-20 757s35 271 105 392 166 216 288 286q181.5 105 393 105 210 0 393-105c121-70 217-165 287-286s105-252 105-392m-109 0q0 181.5-90 339c-61 104-143 186-248 247s-218 91-339 91-233-30-338-91-187-143-247-248c-61-105-91-217-91-338s30-234 91-339c60-105 143-187 248-247 105-61 217-91 338-91s233 30 338 91c105 60 187 142 248 247q90 157.5 90 339m-292 167h-136c-14 59-40 104-79 134-39 29-91 44-156 44-85 0-153-30-204-89-51-60-77-147-77-262 0-112 25-197 74-256s114-88 193-88c67 0 122 21 166 62 43 41 71 102 83 184h136c-13-109-54-196-124-261s-155-97-256-97c-126 0-227 41-302 122S355 610 355 753c0 151 39 268 118 352 78 84 177 126 298 126 111 0 200-28 267-83 67-56 104-131 112-224" horiz-adv-x="1530" unicode="©"/><glyph d="M1966 1513V651h-150v710l-321-710h-99l-311 710V651H936v862h243l267-597 282 597m-958 0v-137H465V651H315v725H12v137z" horiz-adv-x="2048" unicode="™"/><glyph d="M452 1598h215l-295-308H234z" horiz-adv-x="768" unicode="´"/><glyph d="M174 1518c32 0 59-11 82-34s34-50 34-82-11-59-34-82-50-34-82-34-59 11-82 34-34 50-34 82 11 59 34 82 50 34 82 34m408 0c32 0 59-11 82-34s34-50 34-82-11-59-34-82-50-34-82-34-59 11-82 34-34 50-34 82 11 59 34 82 50 34 82 34" horiz-adv-x="756" unicode="¨"/><glyph d="M742 1024h326V887H689L572 584h496V447H519L332-37H194l186 484H56v137h377l116 303H56v137h545l186 484h142z" horiz-adv-x="1124" unicode="≠"/><glyph d="m1 0 950 1471h910v-151h-693V868h693V723h-693V144h693V0h-842v482H484L172 0m406 620h441v681z" horiz-adv-x="2032" unicode="Æ"/><glyph d="M1454 1269c67-68 118-147 155-238 36-91 54-190 54-295 0-215-75-398-224-548C1289 38 1106-37 891-37 728-37 582 6 454 91L290-103 183-16l165 194C192 329 114 513 114 729c0 141 34 273 103 394s162 215 281 283 249 102 391 102c171 0 327-49 467-148l144 174 105-87M444 291l811 954c-113 79-236 119-369 119-109 0-212-28-309-85s-173-133-228-229-82-203-82-322c0-170 59-316 177-437m912 862L551 204c101-65 213-98 335-98 114 0 220 28 317 83s172 131 227 227c54 96 81 203 81 320 0 163-52 302-155 417" horiz-adv-x="1778" unicode="Ø"/><glyph d="M687 812q117 145.5 186 189c46 29 95 43 147 43 73 0 140-26 199-78s89-133 89-243c0-112-28-196-84-251q-84-84-204-84c-58 0-110 16-156 49q-70.5 49.5-177 183c-91-114-187-171-289-171q-102 0-174 78-72 76.5-72 189c0 75 24 138 72 190 48 51 106 77 174 77 102 0 198-57 289-171m69-95c55-85 106-145 152-180 33-25 70-38 110-38 51 0 94 19 128 57 34 37 51 90 51 157 0 70-17 124-52 162-35 37-78 56-131 56-35 0-70-12-103-36-34-25-86-84-155-178m-138-1c-51 65-93 107-125 127-33 20-64 30-95 30-39 0-72-14-97-41-25-28-38-66-38-113s13-84 40-113c26-29 58-43 97-43 67 0 140 51 218 153" horiz-adv-x="1460" unicode="∞"/><glyph d="M493 913v434h137V913h438V776H630V342H493v434H56v137m1012-752V24H56v137z" horiz-adv-x="1124" unicode="±"/><glyph d="M1079 481V335L46 804v130l1033 471v-147L240 868m839-637V94H46v137z" horiz-adv-x="1124" unicode="≤"/><glyph d="m46 481 839 387-839 390v147l1033-471V804L46 335m1033-104V94H46v137z" horiz-adv-x="1124" unicode="≥"/><glyph d="M906 1471h166L655 736h356V619H637V464h374V347H637V0H493v347H123v117h370v155H123v117h353L62 1471h167l337-602z" horiz-adv-x="1135" unicode="¥"/><glyph d="M147-398v1486h141V488c0-91 11-158 34-203 22-45 58-82 108-112 50-31 104-46 162-46s110 15 157 44c46 29 82 69 107 120s37 121 37 210v587h140V0H893v118c-39-49-84-85-133-108-50-23-106-35-169-35S472-13 422 10c-51 23-95 58-134 105v-513z" horiz-adv-x="1180" unicode="µ"/><glyph d="m426 1138-135 60c45 99 99 173 164 221 64 48 129 72 196 72 59 0 113-19 162-56s88-98 117-181c29-84 43-193 43-328 0-197-29-368-87-514-59-147-136-256-232-328C558 11 461-25 364-25c-92 0-166 31-223 92S56 213 56 322c0 157 55 290 164 398 133 131 345 199 638 204-3 127-12 220-29 277s-41 98-72 124c-31 25-66 38-104 38-95 0-171-75-227-225m428-342c-165-10-285-33-359-69s-136-94-185-175-74-164-74-249c0-55 17-101 51-137s74-54 119-54c58 0 120 24 186 73s122 123 169 224q69 151.5 93 387" horiz-adv-x="1012" unicode="∂"/><glyph d="M139 1536h1237v-164H388l607-796-646-841h1037v-161H122v187l620 808-603 791z" horiz-adv-x="1460" unicode="∑"/><glyph d="M162 1536h1362V-426h-191v1788H355V-426H162z" horiz-adv-x="1685" unicode="∏"/><glyph d="M0 1063h1124V905H962V0H773v905H347V0H159v905H0z" horiz-adv-x="1124" unicode=""/><glyph d="M201 948c0 139 5 306 16 499 7 123 25 220 54 292 17 40 41 71 72 92s61 32 92 32q49.5 0 87-33c25-22 38-47 38-74 0-31-9-56-26-75-18-19-40-29-66-29-23 0-49 12-76 36-15 13-29 20-40 20-12 0-22-5-29-14-7-10-11-27-11-50 0-28 3-76 9-145 25-273 37-495 37-665q0-67.5-15-567c-6-203-34-340-84-410-37-51-84-77-141-77-35 0-63 11-85 34Q0-151.5 0-99c0 29 9 53 26 72C43-9 64 0 90 0c27 0 50-11 70-33 19-21 35-31 48-31 11 0 21 5 28 15 7 9 11 25 11 46q0 42-9 120c-25 211-37 488-37 831" horiz-adv-x="561" unicode="∫"/><glyph d="M664 1491V810H550v94c-28-37-59-64-93-82-35-19-73-28-114-28-76 0-143 34-200 102-57 67-86 153-86 256q0 153 87 255c58 67 125 101 201 101 41 0 78-10 113-29 34-19 65-48 92-87v99m-185-92c-51 0-96-23-134-70-39-47-58-106-58-179s19-134 58-181 83-71 133-71c51 0 96 23 135 68 38 45 57 106 57 182 0 75-19 135-57 182-38 46-83 69-134 69" horiz-adv-x="756" unicode="ª"/><glyph d="M377 1508c89 0 165-34 228-103s95-154 95-256c0-101-31-186-94-253-63-68-140-102-229-102s-164 34-227 102c-63 67-95 152-95 253 0 103 32 188 95 257 63 68 139 102 227 102m0-110c-54 0-102-24-143-72s-62-108-62-179 20-130 61-176c40-47 88-70 144-70 57 0 105 23 146 70 40 46 60 105 60 176s-21 131-62 179q-61.5 72-144 72" horiz-adv-x="756" unicode="º"/><glyph d="M496 160c-84 53-149 109-196 168s-84 128-110 209c-27 81-40 169-40 265 0 140 28 264 85 371 56 107 133 188 231 245s212 85 342 85c215 0 383-79 502-236 97-127 145-282 145-466 0-92-13-177-39-256-27-79-64-150-112-212s-112-120-193-173l364 6V0H900v177c60 30 108 62 144 95 61 59 111 132 148 220 37 87 55 182 55 285q0 171-60 306c-41 89-93 155-156 196s-139 61-227 61q-195 0-318-147c-83-98-124-236-124-413 0-147 31-271 92-374s145-179 250-226V0H127v168z" horiz-adv-x="1573" unicode="Ω"/><glyph d="M1245 1088V891c71 85 139 143 205 176s143 49 232 49c164 0 300-55 407-164 107-110 160-251 159-422h-979c3-77 23-150 62-219s90-121 154-157c63-36 134-54 211-54 83 0 158 21 224 62s124 106 173 195l120-60q-73.5-154.5-213-240c-93-57-197-85-314-85-103 0-194 23-275 69-58 33-113 84-166 153V0h-128v201c-59-74-117-127-173-159-80-47-168-70-263-70q-231 0-396 168-165 166.5-165 408c0 104 25 199 74 286 49 86 118 155 205 206s180 76 278 76q141 0 264-69c58-33 117-86 176-157v198m976-437c-19 76-46 136-81 181s-82 81-141 109c-59 27-119 41-181 41-63 0-125-14-184-42-60-29-109-66-147-113s-65-106-82-176M687 981q-114 0-213-57c-67-38-118-90-155-157s-56-142-56-223c0-125 41-230 124-313 83-84 184-126 305-126s222 42 305 125q123 124.5 123 312c0 87-18 163-53 228-36 65-88 116-156 154-69 38-143 57-224 57" horiz-adv-x="2370" unicode="æ"/><glyph d="M1102 913c89-107 133-231 133-372 0-152-53-285-158-398Q918-28 669-28C560-28 460-1 370 54L254-83 165-9l114 134C161 239 102 378 102 541c0 152 53 286 158 402 105 115 241 173 408 173q201 0 351-120l116 137 92-74M367 229l560 658c-79 61-165 92-258 92-74 0-144-19-209-58-66-39-118-93-157-162s-58-143-58-221q0-85.5 33-168c21-55 51-102 89-141m640 573L459 158c69-35 138-53 209-53 77 0 149 19 214 56s116 89 154 157q57 102 57 219c0 96-29 184-86 265" horiz-adv-x="1337" unicode="ø"/><glyph d="M604 1110q51 0 87-36c24-24 36-53 36-88s-12-64-36-88q-36-36-87-36t-87 36c-24 24-36 53-36 88 0 34 12 63 36 88q36 36 87 36M896 11h145c-1-135-41-241-120-319-79-79-185-118-318-118-131 0-233 33-308 99S183-179 183-81c0 47 10 90 31 130 21 39 52 75 93 107q61.5 46.5 216 108 195 78 237 117c27 26 41 57 41 93 0 39-19 73-56 104-38 31-87 46-147 46-66 0-117-17-152-50-35-34-57-88-65-162H235c5 111 39 198 104 260 64 62 150 93 259 93q162 0 258-84c64-56 96-125 96-208 0-40-9-78-26-113q-27-54-75-90c-33-24-94-54-183-91Q452 90.5 392 47c-41-29-61-71-61-125 0-58 25-107 74-147 49-41 114-61 196-61q151.5 0 234 99c39 46 59 112 61 198" horiz-adv-x="1210" unicode="¿"/><glyph d="M302 1110q51 0 87-36c24-24 36-53 36-88s-12-64-36-88q-36-36-87-36t-87 36c-24 24-36 53-36 88 0 34 12 63 36 88q36 36 87 36M231-426V714h145V-426z" horiz-adv-x="604" unicode="¡"/><glyph d="M1127 1024V447H990l-1 440H115v137z" horiz-adv-x="1241" unicode="¬"/><glyph d="M1047 1869h74L809-78 313 943l-198-91-34 64 301 151 405-823z" horiz-adv-x="1124" unicode="√"/><glyph d="M621 882h231l-17-122H602L495 50c-19-131-44-228-74-291s-67-110-110-140c-44-30-90-45-137-45-45 0-93 16-142 49l18 124q55.5-45 111-45c47 0 88 24 123 73 34 49 62 147 83 296l101 689H327l17 122h141l49 319c19 123 40 202 65 239 44 64 99 96 166 96 55 0 114-22 177-65l-18-133c-51 49-98 73-139 73q-49.5 0-75-45c-18-31-34-94-47-190z" horiz-adv-x="1135" unicode="ƒ"/><glyph d="M1070 1023V861c-75-42-128-68-160-79-33-11-63-17-92-17-63 0-152 26-265 77q-132 60-168 72c-25 7-48 11-69 11-29 0-62-6-97-19s-90-41-165-86v160c73 42 126 69 159 80s64 16 95 16c65 0 154-27 268-81q118.5-55.5 162-69c29-9 55-14 78-14 28 0 56 6 85 17s85 42 169 94m0-372V489c-75-42-128-68-160-79-33-11-63-17-92-17-63 0-152 26-265 77q-132 60-168 72c-25 7-48 11-69 11-29 0-62-6-97-19s-90-42-165-86v160c73 41 126 68 159 79s64 17 95 17c65 0 154-27 268-81q118.5-55.5 162-69c29-9 55-14 78-14 28 0 56 6 85 17s85 42 169 94" horiz-adv-x="1124" unicode="≈"/><glyph d="M1226 0H26l628 1387M990 82l-399 967L151 82z" horiz-adv-x="1253" unicode="∆"/><glyph d="M391 1088 168 542 391 0H243L21 542l222 546m606 0L625 542 849 0H701L479 542l222 546z" horiz-adv-x="870" unicode="«"/><glyph d="m479 0 223 545-223 543h147l223-543L626 0M21 0l223 545-223 543h148l222-543L169 0z" horiz-adv-x="870" unicode="»"/><glyph d="M1024 220q51 0 87-36c24-24 36-53 36-88q0-51-36-87c-24-25-53-37-87-37s-63 12-87 37q-36 36-36 87c0 35 12 64 36 88q36 36 87 36m-683 0q51 0 87-36c24-24 36-53 36-88q0-51-36-87c-24-25-53-37-87-37s-63 12-87 37q-36 36-36 87c0 35 12 64 36 88q36 36 87 36m1366 0q49.5 0 87-36c24-24 36-53 36-88q0-51-36-87c-25-25-54-37-87-37-34 0-63 12-87 37q-36 36-36 87c0 35 12 64 36 88q36 36 87 36" horiz-adv-x="2048" unicode="…"/><glyph horiz-adv-x="573"/><glyph d="M780 1471 1466 0h-158l-231 484H443L213 0H49l695 1471m18-312L509 626h503M697 1895l218-308H777l-295 308z" horiz-adv-x="1515" unicode="À"/><glyph d="M780 1471 1466 0h-158l-231 484H443L213 0H49l695 1471m18-312L509 626h503m42 1163 70-97c-48-35-88-58-121-70q-49.5-18-105-18c-48 0-97 12-148 37-43 21-71 34-83 37-16 5-33 7-52 7q-34.5 0-66-12c-21-9-52-28-92-57l-66 102c61 65 136 97 225 97 43 0 94-13 153-40 57-26 101-39 134-39 37 0 87 18 151 53" horiz-adv-x="1515" unicode="Ã"/><glyph d="M880 1508c223 0 409-74 559-223q225-223.5 225-549c0-215-75-398-224-548C1290 38 1107-37 892-37c-218 0-402 75-552 224S115 517 115 729c0 141 34 272 103 393 68 121 161 215 279 284 118 68 246 102 383 102m7-144c-109 0-212-28-309-85s-173-133-228-229-82-203-82-321c0-175 61-322 182-442 121-121 266-181 437-181 114 0 220 28 317 83s172 131 227 227c54 96 81 203 81 320s-27 222-81 317c-55 94-131 169-230 226s-203 85-314 85m299 425 70-97c-48-35-88-58-121-70q-49.5-18-105-18c-48 0-97 12-148 37-43 21-71 34-83 37-16 5-33 7-52 7q-34.5 0-66-12c-21-9-52-28-92-57l-66 102c61 65 136 97 225 97 43 0 94-13 153-40 57-26 101-39 134-39 37 0 87 18 151 53" horiz-adv-x="1780" unicode="Õ"/><glyph d="M1522 1471h838v-145h-689V869h689V724h-689V145h689V0h-838v285c-66-84-129-147-188-190s-126-75-199-98-154-34-241-34c-246 0-445 91-598 273-121 145-182 309-182 492 0 139 34 269 103 390 68 121 164 217 287 286s254 104 392 104c132 0 258-34 378-103 95-55 178-128 248-219m-631 180c-165 0-309-62-432-187-124-125-186-271-186-439 0-177 61-326 183-449s271-185 447-185c170 0 315 62 436 185s181 271 181 446c0 114-28 219-83 314s-133 172-233 229-204 86-313 86" horiz-adv-x="2445" unicode="Œ"/><glyph d="M2214 531h-976c9-149 56-257 140-326 83-69 178-104 285-104 87 0 165 22 235 67 69 45 124 109 163 193l119-61c-63-115-136-199-221-250-85-52-187-78-305-78-65 0-128 10-188 31-61 20-112 47-155 80s-91 88-145 164c-61-91-132-160-213-206Q830-28 677-28c-157 0-290 56-400 168S112 389 112 550c0 180 69 326 206 437q159 129 360 129c109 0 208-29 299-88 66-42 129-109 189-200 56 89 115 154 178 196 91 61 195 92 313 92 155 0 287-54 396-161 108-108 162-237 162-388M672 981c-74 0-144-19-209-57-65-39-117-93-155-162s-57-143-57-220c0-79 19-152 57-220 37-68 90-122 159-161 69-40 140-60 214-60 73 0 143 20 210 59s118 91 154 157c36 65 54 139 54 220 0 125-41 231-124 316S791 981 672 981m1389-330c-27 105-77 187-149 244s-157 85-254 85c-105 0-196-33-275-100-61-51-105-128-132-229z" horiz-adv-x="2329" unicode="œ"/><glyph d="M-12 637h1048V508H-12z" horiz-adv-x="1024" unicode="–"/><glyph d="M-12 637h2072V508H-12z" horiz-adv-x="2048" unicode="—"/><glyph d="m289 1508 78-44c-25-51-42-90-51-119s-15-66-20-111h89V959H204v172c0 86 6 154 18 203 11 49 34 107 67 174m445 0 78-44c-25-51-42-90-51-119s-15-66-20-111h89V959H649v172c0 86 6 154 17 203s34 107 68 174" horiz-adv-x="1028" unicode="“"/><glyph d="m721 959-77 44c25 51 42 90 51 119s15 66 19 111h-88v275h181v-172c0-86-6-153-17-202-12-49-35-108-69-175m-445 0-77 44c25 51 42 90 51 119s15 66 19 111h-88v275h181v-172c0-86-6-153-17-202-12-49-35-108-69-175" horiz-adv-x="991" unicode="”"/><glyph d="m371 1508 78-44c-25-51-42-90-51-119s-15-66-20-111h89V959H286v172c0 86 6 154 18 203 11 49 34 107 67 174" horiz-adv-x="719" unicode="‘"/><glyph d="m347 959-77 44c25 51 42 90 51 119s15 66 19 111h-88v275h181v-172c0-86-6-153-17-202-12-49-35-108-69-175" horiz-adv-x="719" unicode="’"/><glyph d="M461 1207h201v-202H461M56 804h1012V667H56m405-201h201V261H461z" horiz-adv-x="1124" unicode="÷"/><glyph d="m549 1422 418-713L549 0H438L47 709l391 713m57-97L155 709 495 94l359 615z" horiz-adv-x="1012" unicode="◊"/><glyph d="M39 1088h148l374-838 363 838h149L424-398H276L486 82M355 1518c32 0 59-11 82-34s34-50 34-82-11-59-34-82-50-34-82-34-59 11-82 34-34 50-34 82 11 59 34 82 50 34 82 34m408 0c32 0 59-11 82-34s34-50 34-82-11-59-34-82-50-34-82-34-59 11-82 34-34 50-34 82 11 59 34 82 50 34 82 34" horiz-adv-x="1098" unicode="ÿ"/><glyph d="M63 1471h170l376-606 370 606h170L683 703V0H538v703M402 1816c32 0 59-11 82-34s34-50 34-82-11-59-34-82-50-34-82-34-59 11-82 34-34 50-34 82 11 59 34 82 50 34 82 34m408 0c32 0 59-11 82-34s34-50 34-82-11-59-34-82-50-34-82-34-59 11-82 34-34 50-34 82 11 59 34 82 50 34 82 34" horiz-adv-x="1212" unicode="Ÿ"/><glyph d="m-347-37 923 1545h112L-237-37z" horiz-adv-x="340" unicode="⁄"/><glyph d="m42 192 116 114c-41 55-69 106-84 154-16 47-24 99-24 154 0 59 9 116 28 171 14 42 42 89 83 140L41 1042l90 91 120-119c51 39 103 68 157 86 53 17 108 26 164 26q81 0 156-24c50-16 102-43 156-82l117 113 88-91-116-112q64.5-79.5 90-153c17-49 25-103 25-162 0-57-8-110-24-158-17-49-45-99-85-151l116-114-89-90-116 115c-53-41-105-71-156-88q-78-27-165-27c-57 0-111 9-162 26s-104 47-159 89L131 102m62 510c0-103 37-190 111-263 73-73 162-109 265-109 104 0 193 37 266 110s110 162 110 265-36 192-109 265-162 109-266 109-193-37-266-110Q193 768 193 612" horiz-adv-x="1135" unicode="¤"/><glyph d="M445 1088 222 542 445 0H297L75 542l222 546z" horiz-adv-x="514" unicode="‹"/><glyph d="m70 0 223 545-223 543h148l222-543L218 0z" horiz-adv-x="514" unicode="›"/><glyph d="M858 1264H716c-19 92-75 138-167 138-41 0-76-9-103-27-28-19-48-43-60-73-12-31-18-86-18-166v-48h226V965H368V0H226v965H84v123h142v48c0 105 12 182 36 233 23 50 60 90 110 121 49 31 109 46 179 46 88 0 160-25 216-76 55-51 86-116 91-196m-142-176h142V0H716z" horiz-adv-x="997" unicode="ﬁ"/><glyph d="M603 1088V964H379V0H235v964H92v124h143v36c0 113 11 194 34 243 22 49 58 90 109 122 50 31 108 47 174 47 67 0 125-16 176-49 50-33 85-73 106-122s31-135 31-258V0H722v1115q0 138-15 186c-11 31-30 57-58 76-29 19-62 29-99 29s-70-10-98-30c-29-21-49-49-61-86-8-27-12-94-12-202z" horiz-adv-x="993" unicode="ﬂ"/><glyph d="M492 1508h147l-23-354 358 23v-148l-358 27 23-459-23-452 358 20V17L616 45l23-359H492l24 359-357-28v148l357-20-24 452 24 459-357-27v148l357-23z" horiz-adv-x="1133" unicode="‡"/><glyph d="M284 859q51 0 87-36c24-24 36-53 36-88q0-51-36-87c-24-25-53-37-87-37s-63 12-87 37q-36 36-36 87c0 35 12 64 36 88q36 36 87 36" horiz-adv-x="567" unicode="∙"/><glyph d="m350-274-77 43q37.5 76.5 51 120c9 29 15 66 19 111h-88v275h181V103c0-86-6-153-17-202-12-49-35-108-69-175" horiz-adv-x="725" unicode="‚"/><glyph d="m738-274-77 44c25 51 42 90 51 119s15 66 19 111h-88v275h181V103c0-86-6-153-17-202-12-49-35-108-69-175m-445 0-77 44c25 51 42 90 51 119s15 66 19 111h-88v275h181V103c0-86-6-153-17-202-12-49-35-108-69-175" horiz-adv-x="1028" unicode="„"/><glyph d="M1384 1536 312-102H180l975 1492c-115-28-256-42-422-42l-54 1c41-57 62-118 62-182 0-91-32-173-95-245-64-72-149-108-254-108-97 0-178 34-244 101s-99 148-99 244c0 64 15 122 45 175 30 52 73 94 128 126s112 48 170 48c25 0 65-6 122-18 87-19 181-28 282-28 75 0 145 5 212 15 66 9 152 29 258 59m-871-155c-61 0-112-21-155-64s-64-95-64-156 21-112 64-155 94-64 155-64 113 21 156 64 64 94 64 155-21 113-64 156-95 64-156 64m803-732c95 0 177-34 245-101 67-68 101-150 101-245s-34-177-101-244c-68-68-150-102-245-102S1021-9 954 59c-68 67-102 149-102 244s34 177 102 245c67 67 149 101 244 101m0-127c-61 0-112-21-155-64s-64-94-64-155 21-112 64-155 94-64 155-64 113 21 156 64 64 94 64 155-21 112-64 155-95 64-156 64m798 127c95 0 177-34 244-101 67-68 101-150 101-245s-34-177-101-244c-67-68-149-102-244-102-96 0-178 34-245 102-67 67-101 149-101 244s34 177 101 245c67 67 149 101 245 101m0-127c-61 0-112-21-155-64s-65-94-65-155 22-112 65-155 94-64 155-64 112 21 155 64 64 94 64 155-21 112-64 155-94 64-155 64" horiz-adv-x="2404" unicode="‰"/><glyph d="M780 1471 1466 0h-158l-231 484H443L213 0H49l695 1471m18-312L509 626h503M691 1840h139l290-257H940l-176 152-184-152H394z" horiz-adv-x="1515" unicode="Â"/><glyph d="M180 1471h843v-145H327V866h690V722H327V145h690V0H180m363 1840h139l290-257H792l-176 152-184-152H246z" horiz-adv-x="1098" unicode="Ê"/><glyph d="M780 1471 1466 0h-158l-231 484H443L213 0H49l695 1471m18-312L509 626h503M825 1895h215l-295-308H607z" horiz-adv-x="1515" unicode="Á"/><glyph d="M180 1471h843v-145H327V866h690V722H327V145h690V0H180m226 1816c32 0 59-11 82-34s34-50 34-82-11-59-34-82-50-34-82-34-59 11-82 34-34 50-34 82 11 59 34 82 50 34 82 34m408 0c32 0 59-11 82-34s34-50 34-82-11-59-34-82-50-34-82-34-59 11-82 34-34 50-34 82 11 59 34 82 50 34 82 34" horiz-adv-x="1098" unicode="Ë"/><glyph d="M180 1471h843v-145H327V866h690V722H327V145h690V0H180m369 1895 218-308H629l-295 308z" horiz-adv-x="1098" unicode="È"/><glyph d="M158 1471h147V0H158m141 1895h215l-295-308H81z" horiz-adv-x="463" unicode="Í"/><glyph d="M158 1471h147V0H158m7 1840h139l290-257H414l-176 152-184-152h-186z" horiz-adv-x="463" unicode="Î"/><glyph d="M158 1471h147V0H158M28 1816c32 0 59-11 82-34s34-50 34-82-11-59-34-82-50-34-82-34-59 11-82 34-34 50-34 82 11 59 34 82 50 34 82 34m408 0c32 0 59-11 82-34s34-50 34-82-11-59-34-82-50-34-82-34-59 11-82 34-34 50-34 82 11 59 34 82 50 34 82 34" horiz-adv-x="463" unicode="Ï"/><glyph d="M158 1471h147V0H158m13 1895 218-308H251l-295 308z" horiz-adv-x="463" unicode="Ì"/><glyph d="M880 1508c223 0 409-74 559-223q225-223.5 225-549c0-215-75-398-224-548C1290 38 1107-37 892-37c-218 0-402 75-552 224S115 517 115 729c0 141 34 272 103 393 68 121 161 215 279 284 118 68 246 102 383 102m7-144c-109 0-212-28-309-85s-173-133-228-229-82-203-82-321c0-175 61-322 182-442 121-121 266-181 437-181 114 0 220 28 317 83s172 131 227 227c54 96 81 203 81 320s-27 222-81 317c-55 94-131 169-230 226s-203 85-314 85m71 531h215l-295-308H740z" horiz-adv-x="1780" unicode="Ó"/><glyph d="M880 1508c223 0 409-74 559-223q225-223.5 225-549c0-215-75-398-224-548C1290 38 1107-37 892-37c-218 0-402 75-552 224S115 517 115 729c0 141 34 272 103 393 68 121 161 215 279 284 118 68 246 102 383 102m7-144c-109 0-212-28-309-85s-173-133-228-229-82-203-82-321c0-175 61-322 182-442 121-121 266-181 437-181 114 0 220 28 317 83s172 131 227 227c54 96 81 203 81 320s-27 222-81 317c-55 94-131 169-230 226s-203 85-314 85m-63 476h139l290-257h-180l-176 152-184-152H527z" horiz-adv-x="1780" unicode="Ô"/><glyph horiz-adv-x="1617" unicode=""/><glyph d="M880 1508c223 0 409-74 559-223q225-223.5 225-549c0-215-75-398-224-548C1290 38 1107-37 892-37c-218 0-402 75-552 224S115 517 115 729c0 141 34 272 103 393 68 121 161 215 279 284 118 68 246 102 383 102m7-144c-109 0-212-28-309-85s-173-133-228-229-82-203-82-321c0-175 61-322 182-442 121-121 266-181 437-181 114 0 220 28 317 83s172 131 227 227c54 96 81 203 81 320s-27 222-81 317c-55 94-131 169-230 226s-203 85-314 85m-58 531 218-308H909l-295 308z" horiz-adv-x="1780" unicode="Ò"/><glyph d="M184 1471h147V583c0-105 2-171 6-197 7-58 24-106 51-145s68-72 123-98c55-27 111-40 167-40 49 0 95 10 140 31s82 49 112 86 52 81 66 133c10 37 15 114 15 230v888h147V583c0-131-13-237-38-318-26-81-77-152-154-212S795-37 686-37C567-37 466-9 381 48S240 180 211 273c-18 57-27 161-27 310m555 1312h215l-295-308H521z" horiz-adv-x="1341" unicode="Ú"/><glyph d="M184 1471h147V583c0-105 2-171 6-197 7-58 24-106 51-145s68-72 123-98c55-27 111-40 167-40 49 0 95 10 140 31s82 49 112 86 52 81 66 133c10 37 15 114 15 230v888h147V583c0-131-13-237-38-318-26-81-77-152-154-212S795-37 686-37C567-37 466-9 381 48S240 180 211 273c-18 57-27 161-27 310m421 1257h139l290-257H854l-176 152-184-152H308z" horiz-adv-x="1341" unicode="Û"/><glyph d="M184 1471h147V583c0-105 2-171 6-197 7-58 24-106 51-145s68-72 123-98c55-27 111-40 167-40 49 0 95 10 140 31s82 49 112 86 52 81 66 133c10 37 15 114 15 230v888h147V583c0-131-13-237-38-318-26-81-77-152-154-212S795-37 686-37C567-37 466-9 381 48S240 180 211 273c-18 57-27 161-27 310m426 1312 218-308H690l-295 308z" horiz-adv-x="1341" unicode="Ù"/><glyph d="M135 1088h141V0H135z" horiz-adv-x="410" unicode="ı"/><glyph d="M448 1542h139l290-257H697l-176 152-184-152H151z" horiz-adv-x="1028" unicode="ˆ"/><glyph d="m746 1492 70-97c-48-35-88-58-121-70q-49.5-18-105-18c-48 0-97 12-148 37-43 21-71 34-83 37-16 5-33 7-52 7q-34.5 0-66-12c-21-9-52-28-92-57l-66 102c61 65 136 97 225 97 43 0 94-13 153-40 57-26 101-39 134-39 37 0 87 18 151 53" horiz-adv-x="899" unicode="˜"/><glyph d="M152 1479h690v-119H152z" horiz-adv-x="993" unicode="ˉ"/><glyph d="M110 1525h132c23-35 53-61 91-78s83-26 136-26 96 8 129 23q49.5 22.5 93 81h128c-15-60-52-110-112-150-61-41-140-61-239-61q-147 0-240 60c-62 39-101 90-118 151" horiz-adv-x="928" unicode="˘"/><glyph d="M228 1518c32 0 59-11 82-34s34-50 34-82-11-59-34-82-50-34-82-34-59 11-82 34-34 50-34 82 11 59 34 82 50 34 82 34" horiz-adv-x="455" unicode="˙"/><glyph d="M340 1691c59 0 109-21 151-62 41-42 62-93 62-152s-21-109-62-150c-41-42-92-63-151-63q-88.5 0-150 63-63 61.5-63 150c0 59 21 110 63 152 41 41 91 62 150 62m-1-101c-31 0-57-11-78-32-21-22-32-48-32-78s11-56 32-77q31.5-33 78-33c30 0 56 11 77 33 21 21 32 47 32 77s-11 56-32 78c-21 21-47 32-77 32" horiz-adv-x="680" unicode="˚"/><glyph d="M311 0h88l-17-118c15 2 28 3 38 3 33 0 60-10 82-30 22-21 33-46 33-77 0-44-20-81-60-112s-96-46-169-46c-59 0-115 10-167 30l22 69c43-13 83-20 120-20 50 0 85 6 105 19 20 12 30 27 30 46 0 11-5 21-16 30s-27 13-46 13c-16 0-39-3-70-9z" horiz-adv-x="664" unicode="¸"/><glyph d="M475 1598h215l-295-308H257m534 308h215l-295-308H573z" horiz-adv-x="1130" unicode="˝"/><glyph d="M309 0h109c-81-69-121-133-121-193 0-31 13-57 38-78s61-32 108-32c19 0 42 2 69 5l-9-85c-28-7-56-10-85-10-74 0-130 18-169 53s-59 78-59 127c0 87 40 158 119 213" horiz-adv-x="618" unicode="˛"/><glyph d="M580 1285H441l-290 257h180l177-152 183 152h186z" horiz-adv-x="1028" unicode="ˇ"/><glyph d="m438 857 266 221V904L438 682V142h566V0H291v559L89 391v175l202 168v737h147z" horiz-adv-x="1059" unicode="Ł"/><glyph d="m377 971 200 129V960L377 831V0H237v741L53 622v140l184 119v627h140z" horiz-adv-x="614" unicode="ł"/><glyph d="m27 274 125 75c88-162 190-243 305-243 49 0 96 12 139 35s76 53 99 92 34 80 34 123c0 49-17 98-50 145-46 65-130 144-252 236-123 93-199 160-229 201q-78 103.5-78 225c0 64 15 122 46 175s74 94 130 125c55 30 116 45 181 45q103.5 0 195-51c60-35 124-98 191-190l-120-91c-55 73-102 122-141 145s-82 35-128 35c-59 0-108-18-145-54-38-36-57-80-57-133 0-32 7-63 20-93s38-63 73-98c19-19 83-68 190-147 127-94 215-178 262-251s71-147 71-221c0-107-40-199-121-278S587-37 471-37q-133.5 0-243 72C155 82 88 162 27 274m549 1309H437l-290 257h180l177-152 183 152h186z" horiz-adv-x="1020" unicode="Š"/><glyph d="m703 969-90-93c-75 73-148 109-219 109-45 0-84-15-116-45-33-30-49-65-49-105 0-35 13-69 40-101 27-33 83-71 168-115 104-54 175-106 212-156 37-51 55-108 55-171 0-89-31-165-94-227S469-28 375-28c-63 0-122 14-179 41S91 78 54 126l88 100c71-81 147-121 227-121 56 0 104 18 143 54s59 78 59 127c0 40-13 76-39 107s-85 69-176 116c-98 51-165 101-200 150s-53 106-53 169c0 83 28 151 85 206 56 55 127 82 213 82 100 0 201-49 302-147m-240 316H324L34 1542h180l177-152 183 152h186z" horiz-adv-x="795" unicode="š"/><glyph d="M122 1329v142h776L283 143h584V0H56l619 1329m-117 254H419l-290 257h180l177-152 183 152h186z" horiz-adv-x="983" unicode="Ž"/><glyph d="M67 1088h799L250 124h596V0H9l616 965H67m434 320H362L72 1542h180l177-152 183 152h186z" horiz-adv-x="870" unicode="ž"/><glyph d="M616 686v822h143V741M616-398v957l143 54V-398z" horiz-adv-x="1376" unicode="¦"/><glyph d="M213 667H34v137h179v667h366c219 0 379-18 479-53 142-50 253-137 334-260q120-184.5 120-441c0-147-32-277-95-389-64-112-147-195-248-248C1067 27 925 0 742 0H213m141 667V139h230c203 0 344 13 423 38 111 36 198 101 262 195 63 93 95 208 95 343 0 142-34 263-103 364q-103.5 151.5-288 207c-92 28-244 42-455 42H354V804h387V667z" horiz-adv-x="1618" unicode="Ð"/><glyph d="M430 1508h197q52.5-37.5 102-78l164 68 52-107-117-47c145-139 249-275 314-406 65-132 97-256 97-371 0-111-25-212-74-304-50-92-119-163-207-214S773-28 666-28c-155 0-287 56-396 167Q105 305.5 105 547c0 159 54 293 163 404 108 110 236 165 385 165 77 0 161-22 251-65-63 85-134 163-213 235l-218-90-52 106 175 73c-64 53-119 98-166 133m250-526c-104 0-198-33-281-98-102-81-153-192-153-334 0-126 42-231 125-316s183-128 300-128c76 0 147 19 214 58 66 38 118 91 155 158s55 143 55 226-18 158-53 225c-36 67-86 118-150 155-65 36-135 54-212 54" horiz-adv-x="1341" unicode="ð"/><glyph d="M63 1471h170l376-606 370 606h170L683 703V0H538v703m136 1192h215l-295-308H456z" horiz-adv-x="1212" unicode="Ý"/><glyph d="M39 1088h148l374-838 363 838h149L424-398H276L486 82m131 1516h215l-295-308H399z" horiz-adv-x="1098" unicode="ý"/><glyph d="M178 1471h147v-344h146c167 0 280-7 339-22 84-21 153-63 207-127 53-65 80-146 80-243s-26-178-78-241c-52-64-124-107-215-130-67-16-191-24-374-24H325V0H178m147 984V484l249-3c101 0 174 9 221 28s83 48 110 89 40 86 40 137c0 50-13 95-40 136q-40.5 61.5-105 87c-44 17-116 26-215 26z" horiz-adv-x="1212" unicode="Þ"/><glyph d="M158 1508h139V888c55 76 119 133 191 171s152 57 241 57c155 0 287-56 397-167q165-166.5 165-402c0-160-54-296-163-407C1019 28 887-28 733-28c-87 0-166 18-239 54s-138 90-197 161v-585H158M718 981c-121 0-223-42-306-127S287 664 287 538c0-83 19-157 56-223s90-118 159-157 141-58 218-58c75 0 146 20 213 59 66 39 119 93 158 163s59 143 59 220-19 151-58 220-92 123-158 162q-99 57-216 57" horiz-adv-x="1397" unicode="þ"/><glyph d="M115 804h1012V667H115z" horiz-adv-x="1241" unicode="−"/><glyph d="m712 735 332-331-92-92-331 331-332-331-92 92 331 331-331 332 92 92 332-332 331 332 92-92z" horiz-adv-x="1241" unicode="×"/><glyph d="M224 1489h187V733H301v658H151z" horiz-adv-x="680" unicode="¹"/><glyph d="M155 1234H49c1 79 30 145 86 197 55 51 127 77 216 77 83 0 150-23 202-68 52-46 78-101 78-164 0-40-11-79-33-116s-70-89-143-156L265 832h377v-99H6l358 325c71 64 115 110 132 137s26 53 26 79c0 36-16 68-49 95s-75 41-126 41c-57 0-102-15-135-46s-52-74-57-130" horiz-adv-x="680" unicode="²"/><glyph d="M184 1293H72c18 71 50 124 97 161 47 36 104 54 173 54 77 0 141-20 190-60 49-41 73-88 73-143 0-58-30-107-91-146 45-21 79-49 103-84 23-35 35-71 35-110 0-67-28-126-84-175-57-50-131-75-223-75-83 0-150 21-201 62S59 877 44 956h109c13-49 36-84 68-107 31-23 73-35 124-35 60 0 108 15 144 44 35 29 53 62 53 101 0 44-20 78-60 103s-105 39-194 42v94c68 0 119 11 152 33 33 21 50 46 50 75 0 27-13 51-40 72s-63 31-108 31c-37 0-67-9-92-26q-37.5-25.5-66-90" horiz-adv-x="705" unicode="³"/><glyph d="M177 1489h187V733H254v658H104M277-37l923 1545h112L387-37m701 529H982c1 79 30 145 86 197 55 51 127 77 216 77 83 0 150-23 202-68 52-46 78-101 78-164 0-40-11-79-33-116s-70-89-143-156L1198 90h377V-9H939l358 325c71 64 115 110 132 137s26 53 26 79c0 36-16 68-49 95s-75 41-126 41c-57 0-102-15-135-46s-52-74-57-130" horiz-adv-x="1702" unicode="½"/><glyph d="M188 1489h187V733H265v658H115M388-37l923 1545h112L498-37m1056 823V258h105v-97h-105V-9h-111v170h-432m432 97v248l-214-248z" horiz-adv-x="1702" unicode="¼"/><glyph d="M209 1293H97c18 71 50 124 97 161 47 36 104 54 173 54 77 0 141-20 190-60 49-41 73-88 73-143 0-58-30-107-91-146 45-21 79-49 103-84 23-35 35-71 35-110 0-67-28-126-84-175-57-50-131-75-223-75-83 0-150 21-201 62S84 877 69 956h109c13-49 36-84 68-107 31-23 73-35 124-35 60 0 108 15 144 44 35 29 53 62 53 101 0 44-20 78-60 103s-105 39-194 42v94c68 0 119 11 152 33 33 21 50 46 50 75 0 27-13 51-40 72s-63 31-108 31c-37 0-67-9-92-26q-37.5-25.5-66-90M431-37l923 1545h112L541-37m1006 823V258h105v-97h-105V-9h-111v170h-432m432 97v248l-214-248z" horiz-adv-x="1702" unicode="¾"/><glyph d="M325 415h281V277H325V0H179v277H0v138h179v1056h737v-145H325V866h591V721H325z" horiz-adv-x="993" unicode="₣"/><glyph d="m1598 1224-114-108c-82 81-172 142-269 184-98 41-193 62-286 62-115 0-225-28-329-85-105-57-186-133-243-230s-86-200-86-308c0-111 30-216 89-315 59-100 141-178 246-235s219-86 344-86c151 0 279 43 384 128s167 196 186 332h-469v142h634c-1-227-69-408-202-541Q1282-37 946-37c-272 0-487 93-646 278Q117 455.5 117 736c0 139 35 269 105 389q105 180 288 282c122 67 260 101 414 101 125 0 242-22 352-67s217-118 322-217M538 1818h132c23-35 53-61 91-78s83-26 136-26 96 8 129 23q49.5 22.5 93 81h128c-15-60-52-110-112-150-61-41-140-61-239-61q-147 0-240 60c-62 39-101 90-118 151" horiz-adv-x="1786" unicode="Ğ"/><glyph d="M1093 1088h141V221c0-153-13-264-40-335-37-100-100-177-191-231q-136.5-81-327-81c-93 0-177 13-251 40-75 26-135 61-182 106-47 44-90 109-129 194h152c41-72 95-125 160-160s146-52 243-52c95 0 176 18 242 54 65 35 112 80 140 134q42 81 42 261v56c-53-67-117-118-193-153C824 18 743 0 658 0Q508 0 376 75c-88 49-156 116-204 200s-72 176-72 277q0 151.5 75 282c50 87 119 155 208 206 88 51 181 76 279 76 81 0 157-17 228-50 70-34 138-90 203-167m-413 82c-79 0-153-19-221-57-68-39-121-92-160-159-39-68-58-141-58-220 0-119 40-218 120-296s184-117 311-117c129 0 232 39 311 116 78 77 117 179 117 305 0 82-18 155-54 220-36 64-87 115-153 152s-137 56-213 56m-345 544h132c23-35 53-61 91-78s83-26 136-26 96 8 129 23q49.5 22.5 93 81h128c-15-60-52-110-112-150-61-41-140-61-239-61q-147 0-240 60c-62 39-101 90-118 151" horiz-adv-x="1378" unicode="ğ"/><glyph d="M158 1471h147V0H158m74 1811c32 0 59-11 82-34s34-50 34-82-11-59-34-82-50-34-82-34-59 11-82 34-34 50-34 82 11 59 34 82 50 34 82 34" horiz-adv-x="463" unicode="İ"/><glyph d="m27 274 125 75c88-162 190-243 305-243 49 0 96 12 139 35s76 53 99 92 34 80 34 123c0 49-17 98-50 145-46 65-130 144-252 236-123 93-199 160-229 201q-78 103.5-78 225c0 64 15 122 46 175s74 94 130 125c55 30 116 45 181 45q103.5 0 195-51c60-35 124-98 191-190l-120-91c-55 73-102 122-141 145s-82 35-128 35c-59 0-108-18-145-54-38-36-57-80-57-133 0-32 7-63 20-93s38-63 73-98c19-19 83-68 190-147 127-94 215-178 262-251s71-147 71-221c0-107-40-199-121-278S587-37 471-37q-133.5 0-243 72C155 82 88 162 27 274M429 0h88l-17-118c15 2 28 3 38 3 33 0 60-10 82-30 22-21 33-46 33-77 0-44-20-81-60-112s-96-46-169-46c-59 0-115 10-167 30l22 69c43-13 83-20 120-20 50 0 85 6 105 19 20 12 30 27 30 46 0 11-5 21-16 30s-27 13-46 13c-16 0-39-3-70-9z" horiz-adv-x="1020" unicode="Ş"/><glyph d="m703 969-90-93c-75 73-148 109-219 109-45 0-84-15-116-45-33-30-49-65-49-105 0-35 13-69 40-101 27-33 83-71 168-115 104-54 175-106 212-156 37-51 55-108 55-171 0-89-31-165-94-227S469-28 375-28c-63 0-122 14-179 41S91 78 54 126l88 100c71-81 147-121 227-121 56 0 104 18 143 54s59 78 59 127c0 40-13 76-39 107s-85 69-176 116c-98 51-165 101-200 150s-53 106-53 169c0 83 28 151 85 206 56 55 127 82 213 82 100 0 201-49 302-147M340 0h88l-17-118c15 2 28 3 38 3 33 0 60-10 82-30 22-21 33-46 33-77 0-44-20-81-60-112s-96-46-169-46c-59 0-115 10-167 30l22 69c43-13 83-20 120-20 50 0 85 6 105 19 20 12 30 27 30 46 0 11-5 21-16 30s-27 13-46 13c-16 0-39-3-70-9z" horiz-adv-x="795" unicode="ş"/><glyph d="m1549 1198-116-89c-64 83-141 147-230 190-90 43-189 64-296 64-117 0-226-28-326-84-100-57-177-132-232-227s-83-202-83-321c0-179 62-329 185-449q184.5-180 465-180c206 0 378 81 517 242l116-88c-73-93-165-165-274-216-110-51-233-77-368-77-257 0-460 86-609 257-125 145-187 319-187 524 0 215 76 397 227 544s340 220 567 220q205.5 0 372-81c111-55 201-131 272-229m-564 693h215l-295-308H767z" horiz-adv-x="1665" unicode="Ć"/><glyph d="m1212 862-111-69c-96 127-227 191-393 191-133 0-243-43-330-128-88-85-132-189-132-311 0-79 20-154 61-224 40-70 95-124 166-163 70-39 149-58 236-58 160 0 291 64 392 191l111-73c-52-78-122-138-209-181-88-43-188-65-300-65-172 0-315 55-428 164S105 378 105 535c0 105 27 203 80 294 53 90 125 160 218 211s196 76 311 76c72 0 142-11 209-33s123-51 170-86 86-80 119-135m-445 736h215l-295-308H549z" horiz-adv-x="1325" unicode="ć"/><glyph d="m1549 1198-116-89c-64 83-141 147-230 190-90 43-189 64-296 64-117 0-226-28-326-84-100-57-177-132-232-227s-83-202-83-321c0-179 62-329 185-449q184.5-180 465-180c206 0 378 81 517 242l116-88c-73-93-165-165-274-216-110-51-233-77-368-77-257 0-460 86-609 257-125 145-187 319-187 524 0 215 76 397 227 544s340 220 567 220q205.5 0 372-81c111-55 201-131 272-229m-578 380H832l-290 257h180l177-152 183 152h186z" horiz-adv-x="1665" unicode="Č"/><glyph d="m1212 862-111-69c-96 127-227 191-393 191-133 0-243-43-330-128-88-85-132-189-132-311 0-79 20-154 61-224 40-70 95-124 166-163 70-39 149-58 236-58 160 0 291 64 392 191l111-73c-52-78-122-138-209-181-88-43-188-65-300-65-172 0-315 55-428 164S105 378 105 535c0 105 27 203 80 294 53 90 125 160 218 211s196 76 311 76c72 0 142-11 209-33s123-51 170-86 86-80 119-135m-435 423H638l-290 257h180l177-152 183 152h186z" horiz-adv-x="1325" unicode="č"/><glyph d="M1242 1331h160v-115h-160V0h-138v187c-59-71-124-125-197-161Q797.5-28 667-28c-154 0-285 56-394 168-109 111-164 247-164 407q0 235.5 165 402c110 111 242 167 397 167q133.5 0 243-57c72-38 135-95 190-171v328H798v115h306v177h138M682 981q-117 0-216-57c-66-39-118-93-157-162s-59-143-59-220 20-150 59-220 92-124 159-163c66-39 137-59 213-59 77 0 149 19 218 58s122 91 159 157 55 140 55 223c0 126-41 231-124 316S803 981 682 981" horiz-adv-x="1403" unicode="đ"/><glyph d="M-12 1727h1048v-103H-12z" horiz-adv-x="1024" unicode="¯"/><glyph d="M602 870c32 0 59-11 82-34s34-50 34-82-11-59-34-82-50-34-82-34-59 11-82 34-34 50-34 82 11 59 34 82 50 34 82 34" horiz-adv-x="682" unicode="·"/><glyph d="M562 1528v-528h105v-97H562V733H451v170H19m432 97v248l-214-248z" horiz-adv-x="705" unicode=""/><glyph d="M780 1471 1466 0h-158l-231 484H443L213 0H49l695 1471m18-312L509 626h503M410 1822h132c23-35 53-61 91-78s83-26 136-26 96 8 129 23q49.5 22.5 93 81h128c-15-60-52-110-112-150-61-41-140-61-239-61q-147 0-240 60c-62 39-101 90-118 151" horiz-adv-x="1515" unicode="Ă"/><glyph d="M1240 1088V0h-138v187c-59-71-124-125-197-161Q795.5-28 665-28c-154 0-285 56-394 168-109 111-164 247-164 407q0 235.5 165 402c110 111 242 167 397 167q133.5 0 243-57c72-38 135-95 190-171v200M680 981q-117 0-216-57c-66-39-118-93-157-162s-59-143-59-220 20-150 59-220 92-124 159-163c66-39 137-59 213-59 77 0 149 19 218 58s122 91 159 157 55 140 55 223c0 126-41 231-124 316S801 981 680 981m-370 544h132c23-35 53-61 91-78s83-26 136-26 96 8 129 23q49.5 22.5 93 81h128c-15-60-52-110-112-150-61-41-140-61-239-61q-147 0-240 60c-62 39-101 90-118 151" horiz-adv-x="1399" unicode="ă"/><glyph d="M780 1471 1466 0h-158l-231 484H443L213 0H49l695 1471m18-312L509 626h503M1316 0h109c-81-69-121-133-121-193 0-31 13-57 38-78s61-32 108-32c19 0 42 2 69 5l-9-85c-28-7-56-10-85-10-74 0-130 18-169 53s-59 78-59 127c0 87 40 158 119 213" horiz-adv-x="1515" unicode="Ą"/><glyph d="M1240 1088V0h-138v187c-59-71-124-125-197-161Q795.5-28 665-28c-154 0-285 56-394 168-109 111-164 247-164 407q0 235.5 165 402c110 111 242 167 397 167q133.5 0 243-57c72-38 135-95 190-171v200M680 981q-117 0-216-57c-66-39-118-93-157-162s-59-143-59-220 20-150 59-220 92-124 159-163c66-39 137-59 213-59 77 0 149 19 218 58s122 91 159 157 55 140 55 223c0 126-41 231-124 316S801 981 680 981M1115 0h109c-81-69-121-133-121-193 0-31 13-57 38-78s61-32 108-32c19 0 42 2 69 5l-9-85c-28-7-56-10-85-10-74 0-130 18-169 53s-59 78-59 127c0 87 40 158 119 213" horiz-adv-x="1399" unicode="ą"/><glyph d="M179 0v1471h305c220 0 380-18 479-53 143-50 254-137 335-260q120-184.5 120-441c0-147-32-277-95-389-64-112-147-195-248-248C973 27 830 0 647 0M320 139h170c203 0 344 13 423 38q166.5 54 261 195c63 93 95 208 95 343 0 142-34 263-103 364s-164 170-287 207c-92 28-244 42-455 42H320m411 250H592l-290 257h180l177-152 183 152h186z" horiz-adv-x="1524" unicode="Ď"/><glyph d="M1242 1508V0h-138v187C986 44 840-28 667-28c-163 0-296 58-401 174S109 396 109 547c0 153 55 287 164 400s241 169 398 169c179 0 323-76 433-228v620M682 981c-124 0-227-44-309-131-82-88-123-191-123-308 0-119 42-222 126-310 83-88 185-132 305-132q166.5 0 300 117 132 117 132 321c0 133-43 240-128 321-86 81-187 122-303 122m716 60-65 38c35 69 55 134 59 195h-75v234h154v-146c0-71-5-127-14-169s-29-93-59-152" horiz-adv-x="1403" unicode="ď"/><glyph d="M213 667H34v137h179v667h366c219 0 379-18 479-53 142-50 253-137 334-260q120-184.5 120-441c0-147-32-277-95-389-64-112-147-195-248-248C1067 27 925 0 742 0H213m141 667V139h230c203 0 344 13 423 38 111 36 198 101 262 195 63 93 95 208 95 343 0 142-34 263-103 364q-103.5 151.5-288 207c-92 28-244 42-455 42H354V804h387V667z" horiz-adv-x="1618" unicode="Đ"/><glyph d="M180 1471h843v-145H327V866h690V722H327V145h690V0H180m636 0h109c-81-69-121-133-121-193 0-31 13-57 38-78s61-32 108-32c19 0 42 2 69 5l-9-85c-28-7-56-10-85-10-74 0-130 18-169 53s-59 78-59 127c0 87 40 158 119 213" horiz-adv-x="1098" unicode="Ę"/><glyph d="m1072 361 118-62c-39-76-83-137-134-184S948 33 885 9c-63-25-135-37-215-37-177 0-316 58-416 175-100 116-150 247-150 394 0 138 42 261 127 369 107 137 251 206 431 206 185 0 333-70 444-211q118.5-148.5 120-372H248c3-127 43-230 121-311s174-122 289-122c55 0 109 10 162 29 52 19 96 45 133 77s76 84 119 155m0 293c-19 75-46 134-81 179-36 45-83 81-142 108s-120 41-185 41c-107 0-198-34-275-103-56-50-98-125-127-225M689 0h109c-81-69-121-133-121-193 0-31 13-57 38-78s61-32 108-32c19 0 42 2 69 5l-9-85c-28-7-56-10-85-10-74 0-130 18-169 53s-59 78-59 127c0 87 40 158 119 213" horiz-adv-x="1331" unicode="ę"/><glyph d="M180 1471h843v-145H327V866h690V722H327V145h690V0H180m495 1583H536l-290 257h180l177-152 183 152h186z" horiz-adv-x="1098" unicode="Ě"/><glyph d="m1072 361 118-62c-39-76-83-137-134-184S948 33 885 9c-63-25-135-37-215-37-177 0-316 58-416 175-100 116-150 247-150 394 0 138 42 261 127 369 107 137 251 206 431 206 185 0 333-70 444-211q118.5-148.5 120-372H248c3-127 43-230 121-311s174-122 289-122c55 0 109 10 162 29 52 19 96 45 133 77s76 84 119 155m0 293c-19 75-46 134-81 179-36 45-83 81-142 108s-120 41-185 41c-107 0-198-34-275-103-56-50-98-125-127-225m470 631H593l-290 257h180l177-152 183 152h186z" horiz-adv-x="1331" unicode="ě"/><glyph d="M158 1471h147V0H158m966 1471h147V478c0-131-8-228-25-292-17-65-55-118-114-160q-88.5-63-216-63c-122 0-244 52-367 156l79 117c126-91 222-136 288-136 49 0 91 16 127 48s59 71 68 116 13 118 13 219z" horiz-adv-x="1450" unicode="Ĳ"/><glyph d="M205 1536c32 0 59-11 82-34s34-50 34-81c0-32-11-59-34-82s-50-34-82-34c-31 0-58 11-81 34s-34 50-34 82c0 33 12 60 35 82s49 33 80 33m413 0q46.5 0 81-33c23-22 34-49 34-82 0-32-11-59-34-82s-50-34-81-34-58 11-81 34-34 50-34 82c0 33 11 60 34 82q34.5 33 81 33m-483-448h141V0H135m414 1088h142V-164c0-175-62-262-185-262-49 0-103 11-160 34v126c36-19 70-29 101-29 26 0 47 7 64 21 16 14 26 30 31 49 5 18 7 52 7 102z" horiz-adv-x="825" unicode="ĳ"/><glyph d="M179 1471h148V142h565V0H179m368 1896h215l-295-308H329z" horiz-adv-x="946" unicode="Ĺ"/><glyph d="M135 1508h140V0H135m162 1895h215l-295-308H79z" horiz-adv-x="410" unicode="ĺ"/><glyph d="M179 1471h148V142h565V0H179m379 922-77 44c25 51 42 90 51 119s15 66 19 111h-88v275h181v-172c0-86-6-153-17-202-12-49-35-108-69-175" horiz-adv-x="946" unicode="Ľ"/><glyph d="M134 1508h140V0H134m296 1041-66 38q52.5 103.5 60 195h-75v234h153v-146c0-71-4-127-13-169s-29-93-59-152" horiz-adv-x="422" unicode="ľ"/><glyph d="M179 1471h148V142h565V0H179m433 870c32 0 59-11 82-34s34-50 34-82-11-59-34-82-50-34-82-34-59 11-82 34-34 50-34 82 11 59 34 82 50 34 82 34" horiz-adv-x="946" unicode="Ŀ"/><glyph d="M135 1508h140V0H135m337 870c32 0 59-11 82-34s34-50 34-82-11-59-34-82-50-34-82-34-59 11-82 34-34 50-34 82 11 59 34 82 50 34 82 34" horiz-adv-x="540" unicode="ŀ"/><glyph d="M180 0v1471h32l978-1126v1126h145V0h-33L332 1112V0m528 1895h215l-295-308H642z" horiz-adv-x="1515" unicode="Ń"/><glyph d="M156 1088h140V893q84 112.5 186 168c68 37 142 55 222 55 81 0 154-21 217-62s109-97 139-167q45-105 45-327V0H966v519c0 125-5 209-16 251-17 72-48 126-94 163q-69 54-180 54c-85 0-160-28-227-84S337 778 316 695c-13-54-20-153-20-296V0H156m511 1598h215l-295-308H449z" horiz-adv-x="1249" unicode="ń"/><glyph d="M180 0v1471h32l978-1126v1126h145V0h-33L332 1112V0m498 1582H691l-290 257h180l177-152 183 152h186z" horiz-adv-x="1515" unicode="Ň"/><glyph d="M156 1088h140V893q84 112.5 186 168c68 37 142 55 222 55 81 0 154-21 217-62s109-97 139-167q45-105 45-327V0H966v519c0 125-5 209-16 251-17 72-48 126-94 163q-69 54-180 54c-85 0-160-28-227-84S337 778 316 695c-13-54-20-153-20-296V0H156m599 1285H616l-290 257h180l177-152 183 152h186z" horiz-adv-x="1249" unicode="ň"/><glyph d="M161 1088h140V893q84 112.5 186 168c68 37 142 55 222 55 81 0 154-21 217-62s109-97 139-167q45-105 45-327V0H971v519c0 125-5 209-16 251-17 72-48 126-94 163q-69 54-180 54c-85 0-160-28-227-84S342 778 321 695c-13-54-20-153-20-296V0H161M26 959l-77 44c25 51 42 90 51 119s15 66 19 111h-88v275h181v-172c0-86-6-153-17-202-12-49-35-108-69-175" horiz-adv-x="1254" unicode="ŉ"/><glyph d="M880 1508c223 0 409-74 559-223q225-223.5 225-549c0-215-75-398-224-548C1290 38 1107-37 892-37c-218 0-402 75-552 224S115 517 115 729c0 141 34 272 103 393 68 121 161 215 279 284 118 68 246 102 383 102m7-144c-109 0-212-28-309-85s-173-133-228-229-82-203-82-321c0-175 61-322 182-442 121-121 266-181 437-181 114 0 220 28 317 83s172 131 227 227c54 96 81 203 81 320s-27 222-81 317c-55 94-131 169-230 226s-203 85-314 85m-37 532h215l-295-308H632m534 308h215l-295-308H948z" horiz-adv-x="1780" unicode="Ő"/><glyph d="M671 1116c167 0 306-61 416-182q150-166.5 150-393c0-152-53-285-158-398Q920-28 671-28q-250.5 0-408 171C157 256 104 389 104 541c0 151 50 281 150 392q165 183 417 183m0-137c-116 0-216-43-299-129S247 660 247 538c0-79 19-152 57-220s89-120 154-157 136-56 213-56 148 19 213 56 116 89 154 157 57 141 57 220c0 122-42 226-125 312-84 86-184 129-299 129m-23 619h215l-295-308H430m534 308h215l-295-308H746z" horiz-adv-x="1341" unicode="ő"/><glyph d="M187 1471h293c163 0 274-7 332-20 87-20 158-63 213-128 55-66 82-147 82-243 0-80-19-150-56-211-38-61-92-106-162-137s-167-47-290-48L1128 0H946L418 684h-84V0H187m147 1327V827l253-2c98 0 171 9 218 28s83 49 110 90c26 41 39 86 39 137 0 49-13 94-40 135-27 40-62 69-105 86s-115 26-216 26m132 568h215l-295-308H507z" horiz-adv-x="1243" unicode="Ŕ"/><glyph d="M103 1088h143V929q64.5 94.5 135 141c47 31 97 46 148 46 39 0 80-12 124-37l-73-118c-29 13-54 19-74 19q-70.5 0-135-57c-43-39-76-98-99-179-17-62-26-187-26-376V0H103m319 1598h215l-295-308H204z" horiz-adv-x="616" unicode="ŕ"/><glyph d="M187 1471h293c163 0 274-7 332-20 87-20 158-63 213-128 55-66 82-147 82-243 0-80-19-150-56-211-38-61-92-106-162-137s-167-47-290-48L1128 0H946L418 684h-84V0H187m147 1327V827l253-2c98 0 171 9 218 28s83 49 110 90c26 41 39 86 39 137 0 49-13 94-40 135-27 40-62 69-105 86s-115 26-216 26m60 255H514l-290 257h180l177-152 183 152h186z" horiz-adv-x="1243" unicode="Ř"/><glyph d="M103 1088h143V929q64.5 94.5 135 141c47 31 97 46 148 46 39 0 80-12 124-37l-73-118c-29 13-54 19-74 19q-70.5 0-135-57c-43-39-76-98-99-179-17-62-26-187-26-376V0H103m295 1285H259l-290 257h180l177-152 183 152h186z" horiz-adv-x="616" unicode="ř"/><glyph d="m27 274 125 75c88-162 190-243 305-243 49 0 96 12 139 35s76 53 99 92 34 80 34 123c0 49-17 98-50 145-46 65-130 144-252 236-123 93-199 160-229 201q-78 103.5-78 225c0 64 15 122 46 175s74 94 130 125c55 30 116 45 181 45q103.5 0 195-51c60-35 124-98 191-190l-120-91c-55 73-102 122-141 145s-82 35-128 35c-59 0-108-18-145-54-38-36-57-80-57-133 0-32 7-63 20-93s38-63 73-98c19-19 83-68 190-147 127-94 215-178 262-251s71-147 71-221c0-107-40-199-121-278S587-37 471-37q-133.5 0-243 72C155 82 88 162 27 274m525 1621h215l-295-308H334z" horiz-adv-x="1020" unicode="Ś"/><glyph d="m703 969-90-93c-75 73-148 109-219 109-45 0-84-15-116-45-33-30-49-65-49-105 0-35 13-69 40-101 27-33 83-71 168-115 104-54 175-106 212-156 37-51 55-108 55-171 0-89-31-165-94-227S469-28 375-28c-63 0-122 14-179 41S91 78 54 126l88 100c71-81 147-121 227-121 56 0 104 18 143 54s59 78 59 127c0 40-13 76-39 107s-85 69-176 116c-98 51-165 101-200 150s-53 106-53 169c0 83 28 151 85 206 56 55 127 82 213 82 100 0 201-49 302-147m-241 629h215l-295-308H244z" horiz-adv-x="795" unicode="ś"/><glyph d="M33 1328v143h807v-143H512V0H362v1328M471-427l-65 27c21 48 33 90 35 125h-83v154h157v-51c0-111-15-196-44-255" horiz-adv-x="872" unicode="Ţ"/><glyph d="M278 1492h141v-404h222V968H419V0H278v968H87v120h191M382-427l-65 27c21 48 33 90 34 125h-82v154h156v-51c0-111-14-196-43-255" horiz-adv-x="694" unicode="ţ"/><glyph d="M33 1328v143h807v-143H512V0H362v1328m158 250H381L91 1835h180l177-152 183 152h186z" horiz-adv-x="872" unicode="Ť"/><glyph d="m592 1163-59 26c35 55 54 107 56 155h-68v164h138v-103c0-57-4-100-11-129-7-30-26-68-56-113m-314 329h141v-404h222V968H419V0H278v968H87v120h191z" horiz-adv-x="694" unicode="ť"/><glyph d="M184 1471h147V583c0-105 2-171 6-197 7-58 24-106 51-145s68-72 123-98c55-27 111-40 167-40 49 0 95 10 140 31s82 49 112 86 52 81 66 133c10 37 15 114 15 230v888h147V583c0-131-13-237-38-318-26-81-77-152-154-212S795-37 686-37C567-37 466-9 381 48S240 180 211 273c-18 57-27 161-27 310m449 1406c59 0 109-21 151-62 41-42 62-93 62-152s-21-109-62-150c-41-42-92-63-151-63q-88.5 0-150 63-63 61.5-63 150c0 59 21 110 63 152 41 41 91 62 150 62m-1-101c-31 0-57-11-78-32-21-22-32-48-32-78s11-56 32-77q31.5-33 78-33c30 0 56 11 77 33 21 21 32 47 32 77s-11 56-32 78c-21 21-47 32-77 32" horiz-adv-x="1341" unicode="Ů"/><glyph d="M138 1088h141V580c0-124 7-209 20-256 20-67 58-119 115-158 56-39 123-58 201-58s144 19 199 57c54 37 91 87 112 148q21 63 21 267v508h143V554c0-150-17-263-52-339S950 80 880 37C809-6 721-28 615-28S421-6 350 37q-106.5 64.5-159 180c-35 77-53 192-53 347m446 1127c59 0 109-21 151-62 41-42 62-93 62-152s-21-109-62-150c-41-42-92-63-151-63q-88.5 0-150 63-63 61.5-63 150c0 59 21 110 63 152 41 41 91 62 150 62m-1-101c-31 0-57-11-78-32-21-22-32-48-32-78s11-56 32-77q31.5-33 78-33c30 0 56 11 77 33 21 21 32 47 32 77s-11 56-32 78c-21 21-47 32-77 32" horiz-adv-x="1245" unicode="ů"/><glyph d="M184 1471h147V583c0-105 2-171 6-197 7-58 24-106 51-145s68-72 123-98c55-27 111-40 167-40 49 0 95 10 140 31s82 49 112 86 52 81 66 133c10 37 15 114 15 230v888h147V583c0-131-13-237-38-318-26-81-77-152-154-212S795-37 686-37C567-37 466-9 381 48S240 180 211 273c-18 57-27 161-27 310m464 1313h215l-295-308H430m534 308h215l-295-308H746z" horiz-adv-x="1341" unicode="Ű"/><glyph d="M138 1088h141V580c0-124 7-209 20-256 20-67 58-119 115-158 56-39 123-58 201-58s144 19 199 57c54 37 91 87 112 148q21 63 21 267v508h143V554c0-150-17-263-52-339S950 80 880 37C809-6 721-28 615-28S421-6 350 37q-106.5 64.5-159 180c-35 77-53 192-53 347m461 1034h215l-295-308H381m534 308h215l-295-308H697z" horiz-adv-x="1245" unicode="ű"/><glyph d="M122 1329v142h776L283 143h584V0H56l619 1329m-148 566h215l-295-308H309z" horiz-adv-x="983" unicode="Ź"/><glyph d="M67 1088h799L250 124h596V0H9l616 965H67m465 633h215l-295-308H314z" horiz-adv-x="870" unicode="ź"/><glyph d="M122 1329v142h776L283 143h584V0H56l619 1329m-222 486c32 0 59-11 82-34s34-50 34-82-11-59-34-82-50-34-82-34-59 11-82 34-34 50-34 82 11 59 34 82 50 34 82 34" horiz-adv-x="983" unicode="Ż"/><glyph d="M67 1088h799L250 124h596V0H9l616 965H67m336 553c32 0 59-11 82-34s34-50 34-82-11-59-34-82-50-34-82-34-59 11-82 34-34 50-34 82 11 59 34 82 50 34 82 34" horiz-adv-x="870" unicode="ż"/><glyph d="M177 1467h889v-174H371V0H177z" horiz-adv-x="1111" unicode=""/><glyph d="M773 1503c199 0 356-68 471-203 114-136 171-326 171-569 0-150-24-285-73-404q-73.5-178.5-222-273c-99-63-213-94-344-94-141 0-258 29-352 87q-142.5 85.5-225 261-84 174-84 426c0 232 56 418 168 559 111 140 275 210 490 210m0-158q-214.5 0-333-150c-79-100-119-253-119-458q0-222 54-351c36-87 86-153 150-199s143-69 236-69q211.5 0 330 150c79 99 119 258 119 477 0 189-38 336-115 442-77 105-185 158-322 158M492 829h547V662H492z" horiz-adv-x="1530" unicode=""/><glyph d="M761 1503h194v-194c429-15 643-210 643-585 0-377-214-572-643-587v-312H761v312c-431 15-646 211-646 587 0 176 50 315 151 418 100 102 265 158 495 167m0-154c-291-3-436-147-436-432 0-273 145-417 436-434m194 866V289q435 7.5 435 435c0 282-145 426-435 431" horiz-adv-x="1713" unicode=""/><glyph d="M952 192C861 45 737-28 580-28c-151 0-268 51-351 154S104 356 104 507c0 175 43 315 130 418s204 155 352 155c163 0 283-66 361-197l44 180h195c-47-173-71-345-71-514q0-289.5 84-549H997q-31.5 112.5-45 192M620 942c-97 0-173-36-226-109s-80-177-80-312c0-123 26-223 79-298s128-113 227-113c97 0 173 35 227 105 53 69 80 175 80 316 0 124-25 224-74 299-50 75-128 112-233 112" horiz-adv-x="1287" unicode=""/><glyph d="M652 942c-106 82-175 149-208 202s-50 107-50 163q0 115.5 99 183 99 66 273 66c83 0 160-10 231-31v-132c-82 13-144 20-187 20-66 0-118-12-155-35-37-24-56-54-56-91 0-29 10-57 31-84s59-63 115-108c163-127 274-236 333-325s88-186 88-290c0-143-47-264-140-361C932 21 801-28 632-28c-159 0-286 48-383 144S104 335 104 485c0 101 22 185 67 252s100 119 167 157c67 37 141 56 223 56 24 0 54-3 91-8m-11-101c-105 0-186-33-243-98s-86-154-86-266c0-114 29-204 88-270q87-99 237-99c92 0 168 31 229 94q90 93 90 273c0 103-26 189-77 260-52 71-131 106-238 106" horiz-adv-x="1270" unicode=""/><glyph d="M943-12c-68-11-134-16-197-16-200 0-357 48-471 143Q104 257.5 104 523c0 161 51 295 154 400 102 105 254 157 456 157 67 0 139-5 216-14V919l-26 2q-129 9-180 9c-244 0-380-107-407-320h605V469H315q3-151.5 114-249c74-65 189-98 344-98 64 0 121 5 170 16z" horiz-adv-x="1047" unicode=""/><glyph d="M1019 912c95-91 142-218 142-383q0-253.5-138-405C931 23 802-28 635-28c-164 0-293 50-388 149S104 355 104 528c0 172 47 307 142 405 94 98 215 147 362 147 28 0 80-3 156-8 29-3 73-5 132-8h463V912m-719 43c-220 0-330-148-330-443 0-120 27-217 81-292s134-112 239-112c110 0 192 38 245 113s79 181 79 316q0 181.5-75 300c-51 79-130 118-239 118" horiz-adv-x="1398" unicode=""/><glyph d="M41 1063h900V903H588V0H394v903H41z" horiz-adv-x="981" unicode=""/><glyph d="M698 1332h188v-257c179-3 323-48 430-137s160-220 160-393c0-116-18-212-55-288s-102-140-195-191q-141-76.5-342-81v-372H694v373c-164 1-303 45-418 131-115 85-172 225-172 420 0 180 53 313 160 400s251 133 434 140m-2-136c-88-3-159-20-214-49s-96-74-124-135c-29-61-43-136-43-223 0-273 127-411 381-412m190 819V122c253 2 380 140 380 414 0 267-127 402-380 405" horiz-adv-x="1580" unicode=""/><glyph d="M-12-146h1048v-103H-12m0-74h1048v-103H-12z" horiz-adv-x="1024" unicode="‗"/><glyph d="M232 1045H129l43 463h148z" horiz-adv-x="405" unicode="′"/><glyph d="M540 1045H436l44 463h148m-476-463H48l43 463h148z" horiz-adv-x="633" unicode="″"/><glyph d="M373 1508V368H228v1140m627 0V368H711v1140M302 220c33 0 61-12 86-35s37-53 37-89c0-35-12-64-36-88q-37.5-36-87-36c-33 0-62 12-86 37-25 24-37 53-37 87 0 36 12 66 37 89s53 35 86 35m483 0q49.5 0 87-36c24-24 36-53 36-88s-12-64-36-88q-37.5-36-87-36c-34 0-63 12-87 37q-36 36-36 87c0 35 12 64 36 88q36 36 87 36" horiz-adv-x="1087" unicode="‼"/><glyph d="M76 1256h115v-97q93 114 222 114 82.5 0 141-48c39-32 66-70 79-114 13-45 20-107 20-186V575H538v326c0 71-3 123-10 156s-22 59-46 80q-36 30-93 30c-44 0-83-16-118-47-35-32-57-68-66-107s-14-101-14-185V575H76z" horiz-adv-x="729" unicode="ⁿ"/><glyph d="M1097 1088h75v404h141v-404h380c41 19 85 28 132 28 103 0 203-49 302-147l-90-93c-72 73-145 109-219 109-41 0-78-14-113-42s-52-64-52-108c0-34 13-67 38-99 25-33 82-72 170-117 94-49 162-97 204-145 42-49 63-109 63-182 0-84-30-158-90-223s-140-97-240-97c-67 0-128 15-184 44s-101 65-136 110l88 100c71-81 147-121 227-121 51 0 98 17 139 51s62 77 62 130c0 43-14 79-42 110s-85 68-172 113c-89 47-154 94-193 141-40 47-60 106-60 178 0 50 11 97 34 140h-248V0h-141v968h-90c-22-77-58-137-108-179-50-43-112-71-185-84-74-14-194-21-359-21H325V0H178v1471h293q241.5 0 351-24c72-17 136-57 191-120s83-143 84-239m-772 240V828c147-2 228-3 245-3 112 0 192 11 239 33s81 54 103 95q33 61.5 33 126c0 48-13 93-40 136-27 42-63 71-108 88s-116 25-212 25z" horiz-adv-x="2219" unicode="₧"/><glyph d="m690 1336-94-53c-48 79-116 118-204 118-70 0-126-25-167-76-42-51-63-109-63-173 0-69 22-129 65-179q64.5-75 165-75c85 0 153 39 205 118l93-56c-67-111-168-166-301-166-111 0-195 37-254 111s-89 154-89 240q0 151.5 99 258c66 70 150 105 251 105 132 0 230-57 294-172M373-37l924 1545h111L483-37m931 735c93 0 171-36 232-107 61-72 91-156 91-252q0-142.5-90-249c-61-71-138-107-233-107-92 0-169 35-230 105s-92 154-92 251 31 181 92 252 137 107 230 107m0-111c-55 0-103-24-144-73s-61-108-61-177 20-127 59-174c39-48 88-72 146-72q88.5 0 147 72c39 47 59 105 59 174s-20 128-61 177-89 73-145 73" horiz-adv-x="1783" unicode="℅"/><glyph d="m41 422 177 235v455c0 148 20 248 60 301q60 78 171 78c71 0 126-23 165-70s58-102 58-165c0-64-20-141-61-230S496 816 387 665V250c0-55 4-91 13-107 9-17 23-25 43-25 35 0 101 36 199 107V63Q538.5-24 417-24c-65 0-114 20-148 59s-51 100-51 182v225l-79-98m248 555c61 105 100 179 118 224 18 44 27 87 27 128 0 40-7 70-22 90q-22.5 30-54 30c-28 0-46-17-55-50-9-34-14-99-14-195z" horiz-adv-x="734" unicode="ℓ"/><glyph d="M492 876h76q-81-169.5-195-309h1595V466H373q102-102 198-309h-78C344 326 206 439 79 498v45c118 47 256 158 413 333" horiz-adv-x="2048" unicode="←"/><glyph d="M153 1050c175 157 286 295 333 413h46c58-128 171-266 340-415v-77c-138 64-241 130-309 197V-429H462v1597q-139.5-114-309-195z" horiz-adv-x="1024" unicode="↑"/><glyph d="M1555 876c158-175 296-286 413-333v-45c-127-59-265-172-414-341h-77c63 138 129 241 197 309H79v101h1595q-114 139.5-195 309z" horiz-adv-x="2048" unicode="→"/><glyph d="M153-16v76q169.5-81 309-195v1598h101V-135C631-67 734-1 872 62v-77C703-164 590-302 532-429h-46C439-312 328-174 153-16" horiz-adv-x="1024" unicode="↓"/><glyph d="M1968 540v-45c-121-53-256-165-406-337h-80c46 115 111 218 194 311H371c83-93 148-196 194-311h-80C336 330 200 442 79 495v45c121 53 257 165 406 338h80c-46-115-111-218-194-311h1305c-83 93-148 196-194 311h80c150-173 285-285 406-338" horiz-adv-x="2048" unicode="↔"/><glyph d="M489 1463h45c53-121 165-257 337-407v-80c-114 46-218 111-311 195V-135C653-51 757 14 871 59v-79C699-170 587-306 534-427h-45C436-306 324-170 152-20v79C266 14 370-51 463-135v1306c-93-84-197-149-311-195v80c172 150 284 286 337 407" horiz-adv-x="1024" unicode="↕"/><glyph d="M489 1463h45c53-121 165-257 337-407v-80c-114 46-218 111-311 195V-135C653-51 757 14 871 59v-79C699-170 587-306 534-427h-45C436-306 324-170 152-20v79C266 14 370-51 463-135v1306c-93-84-197-149-311-195v80c172 150 284 286 337 407M154-522h717v-98H154z" horiz-adv-x="1024" unicode="↨"/><glyph d="M362 1279h100V100h1181V0H362z" horiz-adv-x="2005" unicode="∟"/><glyph d="M239 0H129v621l2 238c1 77 7 147 19 209 11 62 31 118 58 169s63 96 106 136c43 39 90 69 140 89 49 20 99 30 149 30 79 0 154-23 225-68q106.5-69 165-174c39-71 63-145 72-224s13-214 13-405V0H968v628c0 162-3 278-10 349-7 70-24 133-52 190-28 56-70 102-127 139s-116 55-176 55-118-18-174-55c-57-37-99-82-126-137-28-55-46-118-53-189-7-72-11-189-11-352z" horiz-adv-x="1206" unicode="∩"/><glyph d="M1127 1205v-137H115v137m0-401h1012V667H115m1012-264V266H115v137z" horiz-adv-x="1241" unicode="≡"/><glyph d="M146 944h944V0H146m76 868V76h792v792z" horiz-adv-x="1237" unicode="□"/><glyph d="M594 909V445H131v463z" horiz-adv-x="726" unicode="▪"/><glyph d="M594 909V445H131v463m387-75-311-1V521h311z" horiz-adv-x="726" unicode="▫"/><glyph d="M619 1018c121 0 224-43 311-129 86-86 129-190 129-311s-43-225-129-311c-86-87-190-130-311-130s-225 43-311 130c-87 86-130 190-130 311q0 189 132 315c87 83 190 125 309 125" horiz-adv-x="1237" unicode="●"/><glyph d="M363 928c67 0 126-24 176-72s75-108 75-179c0-69-24-128-73-177s-109-74-178-74-128 25-177 74-74 108-74 177 25 129 74 178 108 73 177 73m0-76c-47 0-88-17-123-50s-52-75-52-125c0-49 17-90 52-124q51-51 123-51c48 0 89 17 124 51 34 34 51 75 51 124s-17 91-52 125c-35 33-76 50-123 50" horiz-adv-x="726" unicode="◦"/><glyph d="m326-121 122-57-183-340-89 38z" horiz-adv-x="682" unicode=""/><glyph d="M780 1471 1466 0h-158l-231 484H443L213 0H49l695 1471m18-312L509 626h503M412 1776h690v-119H412z" horiz-adv-x="1515" unicode="Ā"/><glyph d="M1240 1088V0h-138v187c-59-71-124-125-197-161Q795.5-28 665-28c-154 0-285 56-394 168-109 111-164 247-164 407q0 235.5 165 402c110 111 242 167 397 167q133.5 0 243-57c72-38 135-95 190-171v200M680 981q-117 0-216-57c-66-39-118-93-157-162s-59-143-59-220 20-150 59-220 92-124 159-163c66-39 137-59 213-59 77 0 149 19 218 58s122 91 159 157 55 140 55 223c0 126-41 231-124 316S801 981 680 981m-325 498h690v-119H355z" horiz-adv-x="1399" unicode="ā"/><glyph d="m1549 1198-116-89c-64 83-141 147-230 190-90 43-189 64-296 64-117 0-226-28-326-84-100-57-177-132-232-227s-83-202-83-321c0-179 62-329 185-449q184.5-180 465-180c206 0 378 81 517 242l116-88c-73-93-165-165-274-216-110-51-233-77-368-77-257 0-460 86-609 257-125 145-187 319-187 524 0 215 76 397 227 544s340 220 567 220q205.5 0 372-81c111-55 201-131 272-229m-743 642h139l290-257h-180l-176 152-184-152H509z" horiz-adv-x="1665" unicode="Ĉ"/><glyph d="m1212 862-111-69c-96 127-227 191-393 191-133 0-243-43-330-128-88-85-132-189-132-311 0-79 20-154 61-224 40-70 95-124 166-163 70-39 149-58 236-58 160 0 291 64 392 191l111-73c-52-78-122-138-209-181-88-43-188-65-300-65-172 0-315 55-428 164S105 378 105 535c0 105 27 203 80 294 53 90 125 160 218 211s196 76 311 76c72 0 142-11 209-33s123-51 170-86 86-80 119-135m-614 680h139l290-257H847l-176 152-184-152H301z" horiz-adv-x="1325" unicode="ĉ"/><glyph d="m1549 1198-116-89c-64 83-141 147-230 190-90 43-189 64-296 64-117 0-226-28-326-84-100-57-177-132-232-227s-83-202-83-321c0-179 62-329 185-449q184.5-180 465-180c206 0 378 81 517 242l116-88c-73-93-165-165-274-216-110-51-233-77-368-77-257 0-460 86-609 257-125 145-187 319-187 524 0 215 76 397 227 544s340 220 567 220q205.5 0 372-81c111-55 201-131 272-229m-671 618c32 0 59-11 82-34s34-50 34-82-11-59-34-82-50-34-82-34-59 11-82 34-34 50-34 82 11 59 34 82 50 34 82 34" horiz-adv-x="1665" unicode="Ċ"/><glyph d="m1212 862-111-69c-96 127-227 191-393 191-133 0-243-43-330-128-88-85-132-189-132-311 0-79 20-154 61-224 40-70 95-124 166-163 70-39 149-58 236-58 160 0 291 64 392 191l111-73c-52-78-122-138-209-181-88-43-188-65-300-65-172 0-315 55-428 164S105 378 105 535c0 105 27 203 80 294 53 90 125 160 218 211s196 76 311 76c72 0 142-11 209-33s123-51 170-86 86-80 119-135m-529 656c32 0 59-11 82-34s34-50 34-82-11-59-34-82-50-34-82-34-59 11-82 34-34 50-34 82 11 59 34 82 50 34 82 34" horiz-adv-x="1325" unicode="ċ"/><glyph d="M180 1471h843v-145H327V866h690V722H327V145h690V0H180m72 1776h690v-119H252z" horiz-adv-x="1098" unicode="Ē"/><glyph d="m1072 361 118-62c-39-76-83-137-134-184S948 33 885 9c-63-25-135-37-215-37-177 0-316 58-416 175-100 116-150 247-150 394 0 138 42 261 127 369 107 137 251 206 431 206 185 0 333-70 444-211q118.5-148.5 120-372H248c3-127 43-230 121-311s174-122 289-122c55 0 109 10 162 29 52 19 96 45 133 77s76 84 119 155m0 293c-19 75-46 134-81 179-36 45-83 81-142 108s-120 41-185 41c-107 0-198-34-275-103-56-50-98-125-127-225m58 825h690v-119H320z" horiz-adv-x="1331" unicode="ē"/><glyph d="M180 1471h843v-145H327V866h690V722H327V145h690V0H180m15 1823h132c23-35 53-61 91-78s83-26 136-26 96 8 129 23q49.5 22.5 93 81h128c-15-60-52-110-112-150-61-41-140-61-239-61q-147 0-240 60c-62 39-101 90-118 151" horiz-adv-x="1098" unicode="Ĕ"/><glyph d="m1072 361 118-62c-39-76-83-137-134-184S948 33 885 9c-63-25-135-37-215-37-177 0-316 58-416 175-100 116-150 247-150 394 0 138 42 261 127 369 107 137 251 206 431 206 185 0 333-70 444-211q118.5-148.5 120-372H248c3-127 43-230 121-311s174-122 289-122c55 0 109 10 162 29 52 19 96 45 133 77s76 84 119 155m0 293c-19 75-46 134-81 179-36 45-83 81-142 108s-120 41-185 41c-107 0-198-34-275-103-56-50-98-125-127-225m49 871h132c23-35 53-61 91-78s83-26 136-26 96 8 129 23q49.5 22.5 93 81h128c-15-60-52-110-112-150-61-41-140-61-239-61q-147 0-240 60c-62 39-101 90-118 151" horiz-adv-x="1331" unicode="ĕ"/><glyph d="M180 1471h843v-145H327V866h690V722H327V145h690V0H180m422 1816c32 0 59-11 82-34s34-50 34-82-11-59-34-82-50-34-82-34-59 11-82 34-34 50-34 82 11 59 34 82 50 34 82 34" horiz-adv-x="1098" unicode="Ė"/><glyph d="m1072 361 118-62c-39-76-83-137-134-184S948 33 885 9c-63-25-135-37-215-37-177 0-316 58-416 175-100 116-150 247-150 394 0 138 42 261 127 369 107 137 251 206 431 206 185 0 333-70 444-211q118.5-148.5 120-372H248c3-127 43-230 121-311s174-122 289-122c55 0 109 10 162 29 52 19 96 45 133 77s76 84 119 155m0 293c-19 75-46 134-81 179-36 45-83 81-142 108s-120 41-185 41c-107 0-198-34-275-103-56-50-98-125-127-225m403 864c32 0 59-11 82-34s34-50 34-82-11-59-34-82-50-34-82-34-59 11-82 34-34 50-34 82 11 59 34 82 50 34 82 34" horiz-adv-x="1331" unicode="ė"/><glyph d="m1598 1224-114-108c-82 81-172 142-269 184-98 41-193 62-286 62-115 0-225-28-329-85-105-57-186-133-243-230s-86-200-86-308c0-111 30-216 89-315 59-100 141-178 246-235s219-86 344-86c151 0 279 43 384 128s167 196 186 332h-469v142h634c-1-227-69-408-202-541Q1282-37 946-37c-272 0-487 93-646 278Q117 455.5 117 736c0 139 35 269 105 389q105 180 288 282c122 67 260 101 414 101 125 0 242-22 352-67s217-118 322-217m-763 616h139l290-257h-180l-176 152-184-152H538z" horiz-adv-x="1786" unicode="Ĝ"/><glyph d="M1093 1088h141V221c0-153-13-264-40-335-37-100-100-177-191-231q-136.5-81-327-81c-93 0-177 13-251 40-75 26-135 61-182 106-47 44-90 109-129 194h152c41-72 95-125 160-160s146-52 243-52c95 0 176 18 242 54 65 35 112 80 140 134q42 81 42 261v56c-53-67-117-118-193-153C824 18 743 0 658 0Q508 0 376 75c-88 49-156 116-204 200s-72 176-72 277q0 151.5 75 282c50 87 119 155 208 206 88 51 181 76 279 76 81 0 157-17 228-50 70-34 138-90 203-167m-413 82c-79 0-153-19-221-57-68-39-121-92-160-159-39-68-58-141-58-220 0-119 40-218 120-296s184-117 311-117c129 0 232 39 311 116 78 77 117 179 117 305 0 82-18 155-54 220-36 64-87 115-153 152s-137 56-213 56m-80 561h139l290-257H849l-176 152-184-152H303z" horiz-adv-x="1378" unicode="ĝ"/><glyph d="m1598 1224-114-108c-82 81-172 142-269 184-98 41-193 62-286 62-115 0-225-28-329-85-105-57-186-133-243-230s-86-200-86-308c0-111 30-216 89-315 59-100 141-178 246-235s219-86 344-86c151 0 279 43 384 128s167 196 186 332h-469v142h634c-1-227-69-408-202-541Q1282-37 946-37c-272 0-487 93-646 278Q117 455.5 117 736c0 139 35 269 105 389q105 180 288 282c122 67 260 101 414 101 125 0 242-22 352-67s217-118 322-217m-685 592c32 0 59-11 82-34s34-50 34-82-11-59-34-82-50-34-82-34-59 11-82 34-34 50-34 82 11 59 34 82 50 34 82 34" horiz-adv-x="1786" unicode="Ġ"/><glyph d="M1093 1088h141V221c0-153-13-264-40-335-37-100-100-177-191-231q-136.5-81-327-81c-93 0-177 13-251 40-75 26-135 61-182 106-47 44-90 109-129 194h152c41-72 95-125 160-160s146-52 243-52c95 0 176 18 242 54 65 35 112 80 140 134q42 81 42 261v56c-53-67-117-118-193-153C824 18 743 0 658 0Q508 0 376 75c-88 49-156 116-204 200s-72 176-72 277q0 151.5 75 282c50 87 119 155 208 206 88 51 181 76 279 76 81 0 157-17 228-50 70-34 138-90 203-167m-413 82c-79 0-153-19-221-57-68-39-121-92-160-159-39-68-58-141-58-220 0-119 40-218 120-296s184-117 311-117c129 0 232 39 311 116 78 77 117 179 117 305 0 82-18 155-54 220-36 64-87 115-153 152s-137 56-213 56m12 537c32 0 59-11 82-34s34-50 34-82-11-59-34-82-50-34-82-34-59 11-82 34-34 50-34 82 11 59 34 82 50 34 82 34" horiz-adv-x="1378" unicode="ġ"/><glyph d="m1598 1224-114-108c-82 81-172 142-269 184-98 41-193 62-286 62-115 0-225-28-329-85-105-57-186-133-243-230s-86-200-86-308c0-111 30-216 89-315 59-100 141-178 246-235s219-86 344-86c151 0 279 43 384 128s167 196 186 332h-469v142h634c-1-227-69-408-202-541Q1282-37 946-37c-272 0-487 93-646 278Q117 455.5 117 736c0 139 35 269 105 389q105 180 288 282c122 67 260 101 414 101 125 0 242-22 352-67s217-118 322-217M872 0h88l-17-118c15 2 28 3 38 3 33 0 60-10 82-30 22-21 33-46 33-77 0-44-20-81-60-112s-96-46-169-46c-59 0-115 10-167 30l22 69c43-13 83-20 120-20 50 0 85 6 105 19 20 12 30 27 30 46 0 11-5 21-16 30s-27 13-46 13c-16 0-39-3-70-9z" horiz-adv-x="1786" unicode="Ģ"/><glyph d="M1093 1088h141V221c0-153-13-264-40-335-37-100-100-177-191-231q-136.5-81-327-81c-93 0-177 13-251 40-75 26-135 61-182 106-47 44-90 109-129 194h152c41-72 95-125 160-160s146-52 243-52c95 0 176 18 242 54 65 35 112 80 140 134q42 81 42 261v56c-53-67-117-118-193-153C824 18 743 0 658 0Q508 0 376 75c-88 49-156 116-204 200s-72 176-72 277q0 151.5 75 282c50 87 119 155 208 206 88 51 181 76 279 76 81 0 157-17 228-50 70-34 138-90 203-167m-413 82c-79 0-153-19-221-57-68-39-121-92-160-159-39-68-58-141-58-220 0-119 40-218 120-296s184-117 311-117c129 0 232 39 311 116 78 77 117 179 117 305 0 82-18 155-54 220-36 64-87 115-153 152s-137 56-213 56m-1 837 78-44c-25-51-42-90-51-119s-15-66-20-111h89v-275H594v172c0 86 6 154 18 203 11 49 34 107 67 174" horiz-adv-x="1378" unicode="ģ"/><glyph d="M177 1471h148V854h748v617h148V0h-148v710H325V0H177m456 1840h139l290-257H882l-176 152-184-152H336z" horiz-adv-x="1399" unicode="Ĥ"/><glyph d="M156 1508h140V893c57 75 119 131 187 168s142 55 221 55c81 0 154-21 217-62s109-97 139-166c30-70 45-179 45-328V0H965v519c0 125-5 209-15 251-17 72-49 126-94 163q-69 54-180 54c-85 0-160-28-227-84S337 778 316 695c-13-53-20-152-20-296V0H156m402 1840h139l290-257H807l-176 152-184-152H261z" horiz-adv-x="1249" unicode="ĥ"/><glyph d="M326 1239h747v232h148v-232h133v-138h-133V0h-148v710H326V0H178v1101H45v138h133v232h148m0-370V854h747v247z" horiz-adv-x="1399" unicode="Ħ"/><glyph d="M296 1356h374v-116H296V893c113 149 248 223 407 223 95 0 175-26 241-78 66-53 109-114 130-184 21-71 31-169 31-294V0H965v519c0 126-7 217-20 274-14 57-44 103-89 140q-69 54-180 54c-64 0-121-15-172-44s-93-69-126-118c-34-49-56-100-66-152-11-53-16-144-16-274V0H156v1240H4v116h152v152h140z" horiz-adv-x="1249" unicode="ħ"/><glyph d="M158 1471h147V0H158m370 1790 70-97c-48-35-88-58-121-70q-49.5-18-105-18c-48 0-97 12-148 37-43 21-71 34-83 37-16 5-33 7-52 7q-34.5 0-66-12c-21-9-52-28-92-57l-66 102c61 65 136 97 225 97 43 0 94-13 153-40 57-26 101-39 134-39 37 0 87 18 151 53" horiz-adv-x="463" unicode="Ĩ"/><glyph d="M135 1088h141V0H135m366 1492 70-97c-48-35-88-58-121-70q-49.5-18-105-18c-48 0-97 12-148 37-43 21-71 34-83 37-16 5-33 7-52 7q-34.5 0-66-12c-21-9-52-28-92-57l-66 102c61 65 136 97 225 97 43 0 94-13 153-40 57-26 101-39 134-39 37 0 87 18 151 53" horiz-adv-x="410" unicode="ĩ"/><glyph d="M158 1471h147V0H158m-271 1776h690v-119h-690z" horiz-adv-x="463" unicode="Ī"/><glyph d="M135 1088h141V0H135m-275 1479h690v-119h-690z" horiz-adv-x="410" unicode="ī"/><glyph d="M158 1471h147V0H158m-281 1823H9c23-35 53-61 91-78s83-26 136-26 96 8 129 23q49.5 22.5 93 81h128c-15-60-52-110-112-150-61-41-140-61-239-61q-147 0-240 60c-62 39-101 90-118 151" horiz-adv-x="463" unicode="Ĭ"/><glyph d="M135 1088h141V0H135m-284 1525h132c23-35 53-61 91-78s83-26 136-26 96 8 129 23q49.5 22.5 93 81h128c-15-60-52-110-112-150-61-41-140-61-239-61q-147 0-240 60c-62 39-101 90-118 151" horiz-adv-x="410" unicode="ĭ"/><glyph d="M158 1471h147V0H158m38 0h109c-81-69-121-133-121-193 0-31 13-57 38-78s61-32 108-32c19 0 42 2 69 5l-9-85c-28-7-56-10-85-10-74 0-130 18-169 53s-59 78-59 127c0 87 40 158 119 213" horiz-adv-x="463" unicode="Į"/><glyph d="M205 1536c32 0 59-11 82-34s34-50 34-82c0-31-11-58-34-81s-50-34-82-34c-31 0-58 11-81 34s-34 50-34 81c0 32 11 59 34 82s50 34 81 34m-70-448h141V0H135m32 0h109c-81-69-121-133-121-193 0-31 13-57 38-78s61-32 108-32c19 0 42 2 69 5l-9-85c-28-7-56-10-85-10-74 0-130 18-169 53s-59 78-59 127C48-126 88-55 167 0" horiz-adv-x="410" unicode="į"/><glyph d="M660 1471h148V478c0-153-12-259-35-318-24-60-64-108-119-143q-82.5-54-201-54c-59 0-118 12-175 35-58 23-122 63-192 121l78 117c77-54 140-92 191-114 33-15 66-22 98-22 42 0 80 13 115 38 34 25 58 59 72 101 13 42 20 123 20 244M559 1840h139l290-257H808l-176 152-184-152H262z" horiz-adv-x="987" unicode="Ĵ"/><glyph d="M142 1542h139l290-257H391l-176 152-184-152h-186m294-197h142V-164c0-175-62-262-185-262-49 0-103 11-160 34v126c36-19 70-29 102-29q37.5 0 63 21c16 14 26 30 31 49 5 18 7 52 7 102z" horiz-adv-x="416" unicode="ĵ"/><glyph d="M179 1471h150V919l587 552h199L408 811 1170 0H975L329 686V0H179m315-127c31 10 62 15 95 15 105 0 157-37 157-110 0-46-21-84-62-113q-63-45-168-45c-41 0-90 7-145 22l22 71c45-9 80-14 104-14 87 0 130 22 130 65 0 29-24 43-73 43-18 0-42-4-72-13z" horiz-adv-x="1210" unicode="Ķ"/><glyph d="M155 1508h141V650l503 438h206L408 569 1040 0H842L296 489V0H155m264-127c31 10 62 15 95 15 105 0 157-37 157-110 0-46-21-84-62-113q-63-45-168-45c-41 0-90 7-145 22l22 71c45-9 80-14 104-14 87 0 130 22 130 65 0 29-24 43-73 43-18 0-42-4-72-13z" horiz-adv-x="1028" unicode="ķ"/><glyph d="M155 1088h141V650l503 438h206L408 569 1040 0H842L296 489V0H155z" horiz-adv-x="1028" unicode="ĸ"/><glyph d="M179 1471h148V142h565V0H179m229-127c31 10 62 15 95 15 105 0 157-37 157-110 0-46-21-84-62-113q-63-45-168-45c-41 0-90 7-145 22l22 71c45-9 80-14 104-14 87 0 130 22 130 65 0 29-24 43-73 43-18 0-42-4-72-13z" horiz-adv-x="946" unicode="Ļ"/><glyph d="M135 1508h140V0H135m-29-127c31 10 62 15 95 15 105 0 157-37 157-110 0-46-21-84-62-113q-63-45-168-45c-41 0-90 7-145 22l22 71c45-9 80-14 104-14 87 0 130 22 130 65 0 29-24 43-73 43-18 0-42-4-72-13z" horiz-adv-x="410" unicode="ļ"/><glyph d="M180 0v1471h32l978-1126v1126h145V0h-33L332 1112V0m326-127c31 10 62 15 95 15 105 0 157-37 157-110 0-46-21-84-62-113q-63-45-168-45c-41 0-90 7-145 22l22 71c45-9 80-14 104-14 87 0 130 22 130 65 0 29-24 43-73 43-18 0-42-4-72-13z" horiz-adv-x="1515" unicode="Ņ"/><glyph d="M156 1088h140V893q84 112.5 186 168c68 37 142 55 222 55 81 0 154-21 217-62s109-97 139-167q45-105 45-327V0H966v519c0 125-5 209-16 251-17 72-48 126-94 163q-69 54-180 54c-85 0-160-28-227-84S337 778 316 695c-13-54-20-153-20-296V0H156m370-127c31 10 62 15 95 15 105 0 157-37 157-110 0-46-21-84-62-113q-63-45-168-45c-41 0-90 7-145 22l22 71c45-9 80-14 104-14 87 0 130 22 130 65 0 29-24 43-73 43-18 0-42-4-72-13z" horiz-adv-x="1249" unicode="ņ"/><glyph d="m529 151 105 91c69-93 156-140 262-140 123 0 225 61 306 184q120 184.5 120 453c0 183-52 333-155 452-104 119-232 178-383 178-91 0-176-23-257-70q-121.5-70.5-201-180V0H178v1471h148v-178c131 143 291 215 479 215 197 0 359-75 484-225s187-335 187-556c0-224-56-407-167-550S1058-37 891-37c-146 0-267 63-362 188" horiz-adv-x="1591" unicode="Ŋ"/><glyph d="M1105 560v-724c0-175-62-262-187-262-48 0-100 11-157 34v126c35-19 69-29 101-29 27 0 48 7 65 21 16 14 27 30 32 49 5 18 7 52 7 102v642c0 126-7 217-21 274s-44 103-89 140q-69 54-180 54c-64 0-121-15-172-44s-93-69-126-118c-34-49-56-100-66-152-11-53-16-144-16-274V0H156v1088h140V893c112 149 248 223 407 223 94 0 174-26 240-77 65-52 109-113 130-184s32-169 32-295" horiz-adv-x="1249" unicode="ŋ"/><glyph d="M880 1508c223 0 409-74 559-223q225-223.5 225-549c0-215-75-398-224-548C1290 38 1107-37 892-37c-218 0-402 75-552 224S115 517 115 729c0 141 34 272 103 393 68 121 161 215 279 284 118 68 246 102 383 102m7-144c-109 0-212-28-309-85s-173-133-228-229-82-203-82-321c0-175 61-322 182-442 121-121 266-181 437-181 114 0 220 28 317 83s172 131 227 227c54 96 81 203 81 320s-27 222-81 317c-55 94-131 169-230 226s-203 85-314 85m-342 413h690v-119H545z" horiz-adv-x="1780" unicode="Ō"/><glyph d="M671 1116c167 0 306-61 416-182q150-166.5 150-393c0-152-53-285-158-398Q920-28 671-28q-250.5 0-408 171C157 256 104 389 104 541c0 151 50 281 150 392q165 183 417 183m0-137c-116 0-216-43-299-129S247 660 247 538c0-79 19-152 57-220s89-120 154-157 136-56 213-56 148 19 213 56 116 89 154 157 57 141 57 220c0 122-42 226-125 312-84 86-184 129-299 129m-345 500h690v-119H326z" horiz-adv-x="1341" unicode="ō"/><glyph d="M880 1508c223 0 409-74 559-223q225-223.5 225-549c0-215-75-398-224-548C1290 38 1107-37 892-37c-218 0-402 75-552 224S115 517 115 729c0 141 34 272 103 393 68 121 161 215 279 284 118 68 246 102 383 102m7-144c-109 0-212-28-309-85s-173-133-228-229-82-203-82-321c0-175 61-322 182-442 121-121 266-181 437-181 114 0 220 28 317 83s172 131 227 227c54 96 81 203 81 320s-27 222-81 317c-55 94-131 169-230 226s-203 85-314 85m-352 459h132c23-35 53-61 91-78s83-26 136-26 96 8 129 23q49.5 22.5 93 81h128c-15-60-52-110-112-150-61-41-140-61-239-61q-147 0-240 60c-62 39-101 90-118 151" horiz-adv-x="1780" unicode="Ŏ"/><glyph d="M671 1116c167 0 306-61 416-182q150-166.5 150-393c0-152-53-285-158-398Q920-28 671-28q-250.5 0-408 171C157 256 104 389 104 541c0 151 50 281 150 392q165 183 417 183m0-137c-116 0-216-43-299-129S247 660 247 538c0-79 19-152 57-220s89-120 154-157 136-56 213-56 148 19 213 56 116 89 154 157 57 141 57 220c0 122-42 226-125 312-84 86-184 129-299 129m-355 546h132c23-35 53-61 91-78s83-26 136-26 96 8 129 23q49.5 22.5 93 81h128c-15-60-52-110-112-150-61-41-140-61-239-61q-147 0-240 60c-62 39-101 90-118 151" horiz-adv-x="1341" unicode="ŏ"/><glyph d="M187 1471h293c163 0 274-7 332-20 87-20 158-63 213-128 55-66 82-147 82-243 0-80-19-150-56-211-38-61-92-106-162-137s-167-47-290-48L1128 0H946L418 684h-84V0H187m147 1327V827l253-2c98 0 171 9 218 28s83 49 110 90c26 41 39 86 39 137 0 49-13 94-40 135-27 40-62 69-105 86s-115 26-216 26M504-127c31 10 62 15 95 15 105 0 157-37 157-110 0-46-21-84-62-113q-63-45-168-45c-41 0-90 7-145 22l22 71c45-9 80-14 104-14 87 0 130 22 130 65 0 29-24 43-73 43-18 0-42-4-72-13z" horiz-adv-x="1243" unicode="Ŗ"/><glyph d="M103 1088h143V929q64.5 94.5 135 141c47 31 97 46 148 46 39 0 80-12 124-37l-73-118c-29 13-54 19-74 19q-70.5 0-135-57c-43-39-76-98-99-179-17-62-26-187-26-376V0H103m93-127c31 10 62 15 95 15 105 0 157-37 157-110 0-46-21-84-62-113q-63-45-168-45c-41 0-90 7-145 22l22 71c45-9 80-14 104-14 87 0 130 22 130 65 0 29-24 43-73 43-18 0-42-4-72-13z" horiz-adv-x="616" unicode="ŗ"/><glyph d="m27 274 125 75c88-162 190-243 305-243 49 0 96 12 139 35s76 53 99 92 34 80 34 123c0 49-17 98-50 145-46 65-130 144-252 236-123 93-199 160-229 201q-78 103.5-78 225c0 64 15 122 46 175s74 94 130 125c55 30 116 45 181 45q103.5 0 195-51c60-35 124-98 191-190l-120-91c-55 73-102 122-141 145s-82 35-128 35c-59 0-108-18-145-54-38-36-57-80-57-133 0-32 7-63 20-93s38-63 73-98c19-19 83-68 190-147 127-94 215-178 262-251s71-147 71-221c0-107-40-199-121-278S587-37 471-37q-133.5 0-243 72C155 82 88 162 27 274m417 1566h139l290-257H693l-176 152-184-152H147z" horiz-adv-x="1020" unicode="Ŝ"/><glyph d="m703 969-90-93c-75 73-148 109-219 109-45 0-84-15-116-45-33-30-49-65-49-105 0-35 13-69 40-101 27-33 83-71 168-115 104-54 175-106 212-156 37-51 55-108 55-171 0-89-31-165-94-227S469-28 375-28c-63 0-122 14-179 41S91 78 54 126l88 100c71-81 147-121 227-121 56 0 104 18 143 54s59 78 59 127c0 40-13 76-39 107s-85 69-176 116c-98 51-165 101-200 150s-53 106-53 169c0 83 28 151 85 206 56 55 127 82 213 82 100 0 201-49 302-147m-371 573h139l290-257H581l-176 152-184-152H35z" horiz-adv-x="795" unicode="ŝ"/><glyph d="M512 777h280V639H512V0H362v639H81v138h281v551H33v143h807v-143H512z" horiz-adv-x="872" unicode="Ŧ"/><glyph d="M419 607h246V491H419V0H279v491H63v116h216v361H87v120h192v404h140v-404h222V968H419z" horiz-adv-x="694" unicode="ŧ"/><glyph d="M184 1471h147V583c0-105 2-171 6-197 7-58 24-106 51-145s68-72 123-98c55-27 111-40 167-40 49 0 95 10 140 31s82 49 112 86 52 81 66 133c10 37 15 114 15 230v888h147V583c0-131-13-237-38-318-26-81-77-152-154-212S795-37 686-37C567-37 466-9 381 48S240 180 211 273c-18 57-27 161-27 310m791 1206 70-97c-48-35-88-58-121-70q-49.5-18-105-18c-48 0-97 12-148 37-43 21-71 34-83 37-16 5-33 7-52 7q-34.5 0-66-12c-21-9-52-28-92-57l-66 102c61 65 136 97 225 97 43 0 94-13 153-40 57-26 101-39 134-39 37 0 87 18 151 53" horiz-adv-x="1341" unicode="Ũ"/><glyph d="M138 1088h141V580c0-124 7-209 20-256 20-67 58-119 115-158 56-39 123-58 201-58s144 19 199 57c54 37 91 87 112 148q21 63 21 267v508h143V554c0-150-17-263-52-339S950 80 880 37C809-6 721-28 615-28S421-6 350 37q-106.5 64.5-159 180c-35 77-53 192-53 347m781 928 70-97c-48-35-88-58-121-70q-49.5-18-105-18c-48 0-97 12-148 37-43 21-71 34-83 37-16 5-33 7-52 7q-34.5 0-66-12c-21-9-52-28-92-57l-66 102c61 65 136 97 225 97 43 0 94-13 153-40 57-26 101-39 134-39 37 0 87 18 151 53" horiz-adv-x="1245" unicode="ũ"/><glyph d="M184 1471h147V583c0-105 2-171 6-197 7-58 24-106 51-145s68-72 123-98c55-27 111-40 167-40 49 0 95 10 140 31s82 49 112 86 52 81 66 133c10 37 15 114 15 230v888h147V583c0-131-13-237-38-318-26-81-77-152-154-212S795-37 686-37C567-37 466-9 381 48S240 180 211 273c-18 57-27 161-27 310m141 1194h690v-119H325z" horiz-adv-x="1341" unicode="Ū"/><glyph d="M138 1088h141V580c0-124 7-209 20-256 20-67 58-119 115-158 56-39 123-58 201-58s144 19 199 57c54 37 91 87 112 148q21 63 21 267v508h143V554c0-150-17-263-52-339S950 80 880 37C809-6 721-28 615-28S421-6 350 37q-106.5 64.5-159 180c-35 77-53 192-53 347m139 915h690v-119H277z" horiz-adv-x="1245" unicode="ū"/><glyph d="M184 1471h147V583c0-105 2-171 6-197 7-58 24-106 51-145s68-72 123-98c55-27 111-40 167-40 49 0 95 10 140 31s82 49 112 86 52 81 66 133c10 37 15 114 15 230v888h147V583c0-131-13-237-38-318-26-81-77-152-154-212S795-37 686-37C567-37 466-9 381 48S240 180 211 273c-18 57-27 161-27 310m132 1240h132c23-35 53-61 91-78s83-26 136-26 96 8 129 23q49.5 22.5 93 81h128c-15-60-52-110-112-150-61-41-140-61-239-61q-147 0-240 60c-62 39-101 90-118 151" horiz-adv-x="1341" unicode="Ŭ"/><glyph d="M138 1088h141V580c0-124 7-209 20-256 20-67 58-119 115-158 56-39 123-58 201-58s144 19 199 57c54 37 91 87 112 148q21 63 21 267v508h143V554c0-150-17-263-52-339S950 80 880 37C809-6 721-28 615-28S421-6 350 37q-106.5 64.5-159 180c-35 77-53 192-53 347m130 961h132c23-35 53-61 91-78s83-26 136-26 96 8 129 23q49.5 22.5 93 81h128c-15-60-52-110-112-150-61-41-140-61-239-61q-147 0-240 60c-62 39-101 90-118 151" horiz-adv-x="1245" unicode="ŭ"/><glyph d="M184 1471h147V583c0-105 2-171 6-197 7-58 24-106 51-145s68-72 123-98c55-27 111-40 167-40 49 0 95 10 140 31s82 49 112 86 52 81 66 133c10 37 15 114 15 230v888h147V583c0-131-13-237-38-318-26-81-77-152-154-212S795-37 686-37C567-37 466-9 381 48S240 180 211 273c-18 57-27 161-27 310M680 0h109c-81-69-121-133-121-193 0-31 13-57 38-78s61-32 108-32c19 0 42 2 69 5l-9-85c-28-7-56-10-85-10-74 0-130 18-169 53s-59 78-59 127c0 87 40 158 119 213" horiz-adv-x="1341" unicode="Ų"/><glyph d="M138 1088h141V580c0-124 7-209 20-256 20-67 58-119 115-158 56-39 123-58 201-58s144 19 199 57c54 37 91 87 112 148q21 63 21 267v508h143V554c0-150-17-263-52-339S950 80 880 37C809-6 721-28 615-28S421-6 350 37q-106.5 64.5-159 180c-35 77-53 192-53 347M601 0h109c-81-69-121-133-121-193 0-31 13-57 38-78s61-32 108-32c19 0 42 2 69 5l-9-85c-28-7-56-10-85-10-74 0-130 18-169 53s-59 78-59 127c0 87 40 158 119 213" horiz-adv-x="1245" unicode="ų"/><glyph d="M96 1471h151L546 411l422 1060h30l417-1060 305 1060h150L1448 0h-28L984 1113 539 0h-28m406 1840h139l290-257h-180l-176 152-184-152H620z" horiz-adv-x="1966" unicode="Ŵ"/><glyph d="M9 1088h144l333-790 349 790h25l348-790 339 790h146L1221 0h-27L848 779 499 0h-26m312 1542h139l290-257h-180l-176 152-184-152H488z" horiz-adv-x="1702" unicode="ŵ"/><glyph d="M63 1471h170l376-606 370 606h170L683 703V0H538v703m2 1137h139l290-257H789l-176 152-184-152H243z" horiz-adv-x="1212" unicode="Ŷ"/><glyph d="M39 1088h148l374-838 363 838h149L424-398H276L486 82m-3 1460h139l290-257H732l-176 152-184-152H186z" horiz-adv-x="1098" unicode="ŷ"/><glyph d="M517 1508v-137q-73.5 33-132 33c-29 0-54-7-73-20-20-13-31-30-33-50-3-21-4-54-4-99V0H135v1198c0 101 5 169 14 205 9 35 31 66 67 93 35 27 81 40 138 40 48 0 102-9 163-28" horiz-adv-x="410" unicode="ſ"/><glyph d="M780 1471 1466 0h-158l-231 484H443L213 0H49l695 1471m18-312L509 626h503M762 1822c59 0 109-21 151-62 41-42 62-93 62-152s-21-109-62-150c-41-42-92-63-151-63q-88.5 0-150 63-63 61.5-63 150c0 59 21 110 63 152 41 41 91 62 150 62m-1-101c-31 0-57-11-78-32-21-22-32-48-32-78s11-56 32-77q31.5-33 78-33c30 0 56 11 77 33 21 21 32 47 32 77s-11 56-32 78c-21 21-47 32-77 32m39 449h215l-295-308H582z" horiz-adv-x="1515" unicode="Ǻ"/><glyph d="M1240 1088V0h-138v187c-59-71-124-125-197-161Q795.5-28 665-28c-154 0-285 56-394 168-109 111-164 247-164 407q0 235.5 165 402c110 111 242 167 397 167q133.5 0 243-57c72-38 135-95 190-171v200M680 981q-117 0-216-57c-66-39-118-93-157-162s-59-143-59-220 20-150 59-220 92-124 159-163c66-39 137-59 213-59 77 0 149 19 218 58s122 91 159 157 55 140 55 223c0 126-41 231-124 316S801 981 680 981m21 669c59 0 109-21 151-62 41-42 62-93 62-152s-21-109-62-150c-41-42-92-63-151-63q-88.5 0-150 63-63 61.5-63 150c0 59 21 110 63 152 41 41 91 62 150 62m-1-101c-31 0-57-11-78-32-21-22-32-48-32-78s11-56 32-77q31.5-33 78-33c30 0 56 11 77 33 21 21 32 47 32 77s-11 56-32 78c-21 21-47 32-77 32m45 449h215l-295-308H527z" horiz-adv-x="1399" unicode="ǻ"/><glyph d="m1 0 950 1471h910v-151h-693V868h693V723h-693V144h693V0h-842v482H484L172 0m406 620h441v681m280 594h215l-295-308h-138z" horiz-adv-x="2032" unicode="Ǽ"/><glyph d="M1245 1088V891c71 85 139 143 205 176s143 49 232 49c164 0 300-55 407-164 107-110 160-251 159-422h-979c3-77 23-150 62-219s90-121 154-157c63-36 134-54 211-54 83 0 158 21 224 62s124 106 173 195l120-60q-73.5-154.5-213-240c-93-57-197-85-314-85-103 0-194 23-275 69-58 33-113 84-166 153V0h-128v201c-59-74-117-127-173-159-80-47-168-70-263-70q-231 0-396 168-165 166.5-165 408c0 104 25 199 74 286 49 86 118 155 205 206s180 76 278 76q141 0 264-69c58-33 117-86 176-157v198m976-437c-19 76-46 136-81 181s-82 81-141 109c-59 27-119 41-181 41-63 0-125-14-184-42-60-29-109-66-147-113s-65-106-82-176M687 981q-114 0-213-57c-67-38-118-90-155-157s-56-142-56-223c0-125 41-230 124-313 83-84 184-126 305-126s222 42 305 125q123 124.5 123 312c0 87-18 163-53 228-36 65-88 116-156 154-69 38-143 57-224 57m565 617h215l-295-308h-138z" horiz-adv-x="2370" unicode="ǽ"/><glyph d="M1454 1269c67-68 118-147 155-238 36-91 54-190 54-295 0-215-75-398-224-548C1289 38 1106-37 891-37 728-37 582 6 454 91L290-103 183-16l165 194C192 329 114 513 114 729c0 141 34 273 103 394s162 215 281 283 249 102 391 102c171 0 327-49 467-148l144 174 105-87M444 291l811 954c-113 79-236 119-369 119-109 0-212-28-309-85s-173-133-228-229-82-203-82-322c0-170 59-316 177-437m912 862L551 204c101-65 213-98 335-98 114 0 220 28 317 83s172 131 227 227c54 96 81 203 81 320 0 163-52 302-155 417m-399 743h215l-295-308H739z" horiz-adv-x="1778" unicode="Ǿ"/><glyph d="M1102 913c89-107 133-231 133-372 0-152-53-285-158-398Q918-28 669-28C560-28 460-1 370 54L254-83 165-9l114 134C161 239 102 378 102 541c0 152 53 286 158 402 105 115 241 173 408 173q201 0 351-120l116 137 92-74M367 229l560 658c-79 61-165 92-258 92-74 0-144-19-209-58-66-39-118-93-157-162s-58-143-58-221q0-85.5 33-168c21-55 51-102 89-141m640 573L459 158c69-35 138-53 209-53 77 0 149 19 214 56s116 89 154 157q57 102 57 219c0 96-29 184-86 265m-277 796h215l-295-308H512z" horiz-adv-x="1337" unicode="ǿ"/><glyph d="m474 1598-28-338H328l-29 338z" horiz-adv-x="774" unicode="΄"/><glyph d="m474 1598-28-338H328l-29 338m334-307c-25 0-46 9-63 26s-26 38-26 63 9 47 26 64 38 25 63 25 46-9 63-26 25-38 25-63-8-46-25-63-38-26-63-26m-492 0c-25 0-46 9-63 26s-26 38-26 63 9 46 26 63 38 26 63 26 46-8 63-25 26-39 26-64-9-46-26-63-38-26-63-26" horiz-adv-x="774" unicode="΅"/><glyph d="M780 1471 1466 0h-158l-231 484H443L213 0H49l695 1471m18-312L509 626h503m-588 882-28-338H278l-29 338z" horiz-adv-x="1515" unicode="Ά"/><glyph d="M433 992c0-35-12-64-35-88-24-24-53-36-88-36q-52.5 0-87 36c-24 24-36 53-36 88s12 64 36 88q34.5 36 87 36c35 0 64-12 88-36 23-24 35-53 35-88" horiz-adv-x="567" unicode="·"/><glyph d="M270 1471h843v-145H417V866h690V722H417V145h690V0H270M75 1508l-28-338H-71l-29 338z" horiz-adv-x="1188" unicode="Έ"/><glyph d="M267 1471h148V854h748v617h148V0h-148v710H415V0H267M75 1508l-28-338H-71l-29 338z" horiz-adv-x="1489" unicode="Ή"/><glyph d="M248 1471h147V0H248M75 1508l-28-338H-71l-29 338z" horiz-adv-x="553" unicode="Ί"/><glyph d="M880 1508c223 0 409-74 559-223q225-223.5 225-549c0-215-75-398-224-548C1290 38 1107-37 892-37c-218 0-402 75-552 224S115 517 115 729c0 141 34 272 103 393 68 121 161 215 279 284 118 68 246 102 383 102m7-144c-109 0-212-28-309-85s-173-133-228-229-82-203-82-321c0-175 61-322 182-442 121-121 266-181 437-181 114 0 220 28 317 83s172 131 227 227c54 96 81 203 81 320s-27 222-81 317c-55 94-131 169-230 226s-203 85-314 85M75 1508l-28-338H-71l-29 338z" horiz-adv-x="1780" unicode="Ό"/><glyph d="M173 1471h170l376-606 370 606h170L793 703V0H648v703M75 1508l-28-338H-71l-29 338z" horiz-adv-x="1322" unicode="Ύ"/><glyph d="M1103 138h433V0H975v196c199 129 324 240 377 333s79 190 79 292c0 165-53 297-159 395s-244 147-415 147-309-49-415-147c-107-99-160-230-160-395q0-151.5 75-288c50-91 177-204 381-337V0H177v138h433C416 259 288 371 225 476s-95 220-95 347c0 203 68 368 205 495q205.5 189 522 189t522-189q204-190.5 204-495c0-127-31-242-94-347s-192-217-386-338M75 1508l-28-338H-71l-29 338z" horiz-adv-x="1713" unicode="Ώ"/><glyph d="M135 1088h141V0H135m158 1598-28-338H147l-29 338m334-307c-25 0-46 9-63 26s-26 38-26 63 9 47 26 64 38 25 63 25 46-9 63-26 25-38 25-63-8-46-25-63-38-26-63-26m-492 0c-25 0-46 9-63 26s-26 38-26 63 9 46 26 63 38 26 63 26 46-8 63-25 26-39 26-64-9-46-26-63-38-26-63-26" horiz-adv-x="410" unicode="ΐ"/><glyph d="M780 1471 1466 0h-158l-231 484H443L213 0H49l695 1471m18-312L509 626h503z" horiz-adv-x="1515" unicode="Α"/><glyph d="M183 1471h290c117 0 206-14 269-41 63-28 112-71 149-128 36-57 54-121 54-191 0-65-16-125-48-178-32-54-79-98-141-131 77-26 136-56 177-91s74-78 97-127c23-50 34-104 34-162 0-118-43-218-129-299Q804.5 0 587 0H183m144 1327V856h84c102 0 177 10 225 29q72 28.5 114 90c28 41 42 86 42 136 0 67-23 120-70 159q-70.5 57-225 57M327 708V144h182c107 0 186 11 236 32s90 53 121 98c30 45 45 93 45 145 0 65-21 122-64 171s-101 82-176 100q-75 18-261 18z" horiz-adv-x="1176" unicode="Β"/><glyph d="M914 1326H323V0H177v1471h737z" horiz-adv-x="946" unicode="Γ"/><glyph d="M1466 0H49l695 1471h36m459-1326L762 1159 281 145z" horiz-adv-x="1515" unicode="Δ"/><glyph d="M180 1471h843v-145H327V866h690V722H327V145h690V0H180z" horiz-adv-x="1098" unicode="Ε"/><glyph d="M122 1329v142h776L283 143h584V0H56l619 1329z" horiz-adv-x="983" unicode="Ζ"/><glyph d="M177 1471h148V854h748v617h148V0h-148v710H325V0H177z" horiz-adv-x="1399" unicode="Η"/><glyph d="M892-37c-217 0-401 74-551 222-151 147-226 329-226 544 0 217 74 402 223 553s329 226 542 226c222 0 408-73 559-220q225-220.5 225-552c0-217-74-400-223-549S1109-37 892-37m-5 1401c-165 0-310-60-433-180-124-121-186-272-186-455 0-174 60-321 179-442s266-181 440-181 322 60 443 179 182 270 182 451c0 194-65 347-194 460-130 112-274 168-431 168m371-692H521v144h737z" horiz-adv-x="1780" unicode="Θ"/><glyph d="M158 1471h147V0H158z" horiz-adv-x="463" unicode="Ι"/><glyph d="M179 1471h150V919l587 552h199L408 811 1170 0H975L329 686V0H179z" horiz-adv-x="1210" unicode="Κ"/><glyph d="M1370 0h-160L723 1137 227 0H67l640 1471h32z" horiz-adv-x="1438" unicode="Λ"/><glyph d="m112 0 209 1471h24L943 264l592 1207h24L1770 0h-145l-144 1052L961 0h-37L397 1060 254 0z" horiz-adv-x="1882" unicode="Μ"/><glyph d="M180 0v1471h32l978-1126v1126h145V0h-33L332 1112V0z" horiz-adv-x="1515" unicode="Ν"/><glyph d="M972 1326H115v145h857m0-749H115v144h857m0-866H115v145h857z" horiz-adv-x="1087" unicode="Ξ"/><glyph d="M880 1508c223 0 409-74 559-223q225-223.5 225-549c0-215-75-398-224-548C1290 38 1107-37 892-37c-218 0-402 75-552 224S115 517 115 729c0 141 34 272 103 393 68 121 161 215 279 284 118 68 246 102 383 102m7-144c-109 0-212-28-309-85s-173-133-228-229-82-203-82-321c0-175 61-322 182-442 121-121 266-181 437-181 114 0 220 28 317 83s172 131 227 227c54 96 81 203 81 320s-27 222-81 317c-55 94-131 169-230 226s-203 85-314 85" horiz-adv-x="1780" unicode="Ο"/><glyph d="M1221 0h-148v1331H325V0H177v1471h1044z" horiz-adv-x="1399" unicode="Π"/><glyph d="M178 1471h293c168 0 281-7 340-22 84-21 153-63 206-127 53-65 80-146 80-243 0-98-26-179-78-242-52-64-124-107-215-129-67-16-191-24-374-24H325V0H178m147 1328V828l249-3c101 0 174 9 221 28 47 18 83 48 110 89s40 86 40 137c0 49-13 95-40 136q-40.5 61.5-105 87c-44 17-116 26-215 26z" horiz-adv-x="1212" unicode="Ρ"/><glyph d="M927 0H66l411 734-405 737h840v-142H312l330-596-333-590h618z" horiz-adv-x="1027" unicode="Σ"/><glyph d="M33 1328v143h807v-143H512V0H362v1328z" horiz-adv-x="872" unicode="Τ"/><glyph d="M63 1471h170l376-606 370 606h170L683 703V0H538v703z" horiz-adv-x="1212" unicode="Υ"/><glyph d="M954 145V0H806v145c-216 14-388 74-515 180-127 105-191 245-191 419 0 173 64 314 193 421q193.5 160.5 513 180v126h148v-126c216-14 388-74 515-179 127-106 191-246 191-420 0-173-64-314-193-421q-193.5-160.5-513-180m0 1064V282c158 10 290 52 396 125 105 73 158 186 158 339 0 137-49 245-146 326-98 80-234 126-408 137M806 282v927c-158-10-290-51-395-124-106-73-159-187-159-340 0-137 49-245 147-325 97-81 233-127 407-138" horiz-adv-x="1760" unicode="Φ"/><glyph d="M101 1471h172l352-574 355 574h170L712 758 1179 0h-172L625 617 241 0H69l469 758z" horiz-adv-x="1247" unicode="Χ"/><glyph d="M1480 964c0-137-20-246-59-325-40-80-106-145-199-195s-205-78-338-85V0H736v359c-123 7-228 30-314 71S268 530 217 608s-77 200-77 367v496h151v-448c0-121 10-214 29-277 19-64 64-118 135-163s165-73 281-82v970h148V501c121 9 217 37 287 84 69 47 113 100 131 161 18 60 27 152 27 277v448h151z" horiz-adv-x="1620" unicode="Ψ"/><glyph d="M1103 138h433V0H975v196c199 129 324 240 377 333s79 190 79 292c0 165-53 297-159 395s-244 147-415 147-309-49-415-147c-107-99-160-230-160-395q0-151.5 75-288c50-91 177-204 381-337V0H177v138h433C416 259 288 371 225 476s-95 220-95 347c0 203 68 368 205 495q205.5 189 522 189t522-189q204-190.5 204-495c0-127-31-242-94-347s-192-217-386-338" horiz-adv-x="1713" unicode="Ω"/><glyph d="M158 1471h147V0H158M28 1816c32 0 59-11 82-34s34-50 34-82-11-59-34-82-50-34-82-34-59 11-82 34-34 50-34 82 11 59 34 82 50 34 82 34m408 0c32 0 59-11 82-34s34-50 34-82-11-59-34-82-50-34-82-34-59 11-82 34-34 50-34 82 11 59 34 82 50 34 82 34" horiz-adv-x="463" unicode="Ϊ"/><glyph d="M63 1471h170l376-606 370 606h170L683 703V0H538v703M402 1816c32 0 59-11 82-34s34-50 34-82-11-59-34-82-50-34-82-34-59 11-82 34-34 50-34 82 11 59 34 82 50 34 82 34m408 0c32 0 59-11 82-34s34-50 34-82-11-59-34-82-50-34-82-34-59 11-82 34-34 50-34 82 11 59 34 82 50 34 82 34" horiz-adv-x="1212" unicode="Ϋ"/><glyph d="M1240 1088V0h-138v187c-59-71-124-125-197-161Q795.5-28 665-28c-154 0-285 56-394 168-109 111-164 247-164 407q0 235.5 165 402c110 111 242 167 397 167q133.5 0 243-57c72-38 135-95 190-171v200M680 981q-117 0-216-57c-66-39-118-93-157-162s-59-143-59-220 20-150 59-220 92-124 159-163c66-39 137-59 213-59 77 0 149 19 218 58s122 91 159 157 55 140 55 223c0 126-41 231-124 316S801 981 680 981m107 617-28-338H641l-29 338z" horiz-adv-x="1399" unicode="ά"/><glyph d="M827 116C736 19 617-29 468-29 361-29 274 2 206 64c-69 62-103 144-103 246 0 137 65 232 196 287q-150 61.5-150 231c0 86 31 156 92 210 61 53 137 80 228 80q165 0 312-123l-79-97c-76 59-152 88-227 88-59 0-105-16-139-47-35-32-52-76-52-131 0-52 18-95 53-128s80-50 134-50h73V510h-86c-59 0-107-19-146-57s-59-86-59-144c0-64 21-114 62-151s96-56 165-56c105 0 192 38 259 114M520 1598l-28-338H374l-29 338z" horiz-adv-x="866" unicode="έ"/><glyph d="M1105-398H966v917c0 109-5 193-16 254s-39 112-85 153c-47 41-110 61-189 61-87 0-163-28-228-83-66-56-108-117-125-183-18-67-27-174-27-322V0H156v1088h140V893c111 149 247 223 408 223 78 0 148-19 211-58s110-94 142-164 48-181 48-334M712 1598l-28-338H566l-29 338z" horiz-adv-x="1249" unicode="ή"/><glyph d="M135 1088h141V0H135m157 1598-28-338H146l-29 338z" horiz-adv-x="410" unicode="ί"/><glyph d="M135 1088h141V580c0-109 6-192 18-250 12-59 46-110 103-155s128-67 215-67c118 0 208 39 269 118s91 185 91 318c0 182-85 330-254 445l77 128c213-125 320-325 320-599 0-160-45-291-136-393S766-28 612-28C469-28 354 14 267 97c-88 83-132 239-132 467m562 1034-28-338H551l-29 338m334-307c-25 0-46 9-63 26s-26 38-26 63 9 47 26 64 38 25 63 25 46-9 63-26 25-38 25-63-8-46-25-63-38-26-63-26m-492 0c-25 0-46 9-63 26s-26 38-26 63 9 46 26 63 38 26 63 26 46-8 63-25 26-39 26-64-9-46-26-63-38-26-63-26" horiz-adv-x="1219" unicode="ΰ"/><glyph d="M1240 1088V0h-138v187c-59-71-124-125-197-161Q795.5-28 665-28c-154 0-285 56-394 168-109 111-164 247-164 407q0 235.5 165 402c110 111 242 167 397 167q133.5 0 243-57c72-38 135-95 190-171v200M680 981q-117 0-216-57c-66-39-118-93-157-162s-59-143-59-220 20-150 59-220 92-124 159-163c66-39 137-59 213-59 77 0 149 19 218 58s122 91 159 157 55 140 55 223c0 126-41 231-124 316S801 981 680 981" horiz-adv-x="1399" unicode="α"/><glyph d="M297 164v-562H156v1505c0 153 40 263 119 330 79 66 173 99 281 99 111 0 199-29 264-88s97-138 97-237c0-154-73-258-219-311 128-13 230-58 306-137s114-179 114-301c0-139-46-256-139-349C886 19 772-28 635-28c-143 0-255 64-338 192m138 641v117c226 6 339 98 339 275 0 61-19 111-56 150-38 38-88 57-151 57-87 0-154-24-200-72-47-48-70-134-70-258l1-613c0-108 33-194 98-259s144-97 237-97c97 0 178 34 244 101 65 67 98 149 98 247q0 145.5-99 249c-67 69-190 103-371 103z" horiz-adv-x="1221" unicode="β"/><glyph d="M1077 1088 635 122v-520H497v522L53 1088h149l364-792 361 792z" horiz-adv-x="1135" unicode="γ"/><glyph d="M445 906c-110 74-165 171-165 290q0 151.5 117 246c77 63 173 94 288 94 84 0 163-9 238-28l-36-125c-56 15-120 22-191 22-84 0-150-19-199-56-49-38-74-88-74-149 0-53 16-99 49-137q49.5-57 258-141c225-90 337-245 337-466 0-136-46-251-138-344C836 19 722-28 586-28S336 19 243 112 104 319 104 456c0 220 114 370 341 450m141-100c-95 0-175-35-240-104q-99-103.5-99-249c0-97 33-180 98-247s145-101 241-101 177 34 242 101 97 150 97 247-33 180-98 249c-66 69-146 104-241 104" horiz-adv-x="1171" unicode="δ"/><glyph d="M827 116C736 19 617-29 468-29 361-29 274 2 206 64c-69 62-103 144-103 246 0 137 65 232 196 287q-150 61.5-150 231c0 86 31 156 92 210 61 53 137 80 228 80q165 0 312-123l-79-97c-76 59-152 88-227 88-59 0-105-16-139-47-35-32-52-76-52-131 0-52 18-95 53-128s80-50 134-50h73V510h-86c-59 0-107-19-146-57s-59-86-59-144c0-64 21-114 62-151s96-56 165-56c105 0 192 38 259 114z" horiz-adv-x="866" unicode="ε"/><glyph d="m388-406 36 126c42-11 82-16 119-16 165 0 247 53 247 158 0 39-18 71-55 94S629 1 528 20C255 73 118 234 118 505c0 141 49 280 146 419s255 292 472 461H233v123h675v-123c-240-202-408-367-503-495Q261 696.5 261 515c0-104 24-186 72-245 47-60 134-103 260-129 153-31 248-69 285-112 37-44 55-98 54-161q0-138-105-216c-71-52-162-78-274-78-58 0-113 7-165 20" horiz-adv-x="953" unicode="ζ"/><glyph d="M1105-398H966v917c0 109-5 193-16 254s-39 112-85 153c-47 41-110 61-189 61-87 0-163-28-228-83-66-56-108-117-125-183-18-67-27-174-27-322V0H156v1088h140V893c111 149 247 223 408 223 78 0 148-19 211-58s110-94 142-164 48-181 48-334z" horiz-adv-x="1249" unicode="η"/><glyph d="M671-28c-179 0-319 70-418 210-99 139-149 329-149 568q0 360 150 573 148.5 213 417 213t417-213c99-142 149-333 149-573 0-239-49-428-148-568S850-28 671-28m422 844c-9 183-50 327-123 433s-173 159-299 159-226-53-299-158-115-250-124-434m846-123H248c7-187 47-332 120-436 73-105 174-157 303-157q193.5 0 303 156c73 103 113 249 120 437" horiz-adv-x="1341" unicode="θ"/><glyph d="M135 1088h141V0H135z" horiz-adv-x="410" unicode="ι"/><glyph d="M1040 0H842L296 489V0H155v1089h141V650l503 438h206L408 569z" horiz-adv-x="1028" unicode="κ"/><glyph d="M1073 0H924L561 838 187 0H39l447 1006-220 502h148z" horiz-adv-x="1098" unicode="λ"/><glyph d="M1093 1H953v195C841 47 705-27 545-27 429-27 342 12 284 89v-487H144v1487h140V570c0-109 5-193 16-254s39-111 86-152c46-41 108-62 187-62 87 0 163 28 229 84 65 55 107 116 125 183 17 66 26 173 26 321v399h140z" horiz-adv-x="1249" unicode="μ"/><glyph d="M53 1088h149l364-792 361 792h150L579 0h-25z" horiz-adv-x="1135" unicode="ν"/><glyph d="m388-406 36 126c42-11 82-16 119-16 165 0 247 53 247 158 0 34-15 63-44 87-30 23-109 47-237 71-261 49-391 201-391 455q0 145.5 84 255c55 73 131 125 227 155-153 75-229 179-229 311 0 106 41 189 122 250 81 60 185 90 313 90 103 0 196-12 279-37l-33-134c-77 27-165 40-265 40q-124.5 0-198-63c-50-43-75-98-75-166 0-75 38-134 114-179 75-45 163-67 264-67h119V808H638c-98 0-185-26-262-79S261 595 261 485c0-93 23-167 69-221 45-55 126-95 241-120 138-31 233-63 284-97 51-35 77-94 77-179q0-138-105-216c-71-52-162-78-274-78-58 0-113 7-165 20" horiz-adv-x="953" unicode="ξ"/><glyph d="M671 1116c167 0 306-61 416-182q150-166.5 150-393c0-152-53-285-158-398Q920-28 671-28q-250.5 0-408 171C157 256 104 389 104 541c0 151 50 281 150 392q165 183 417 183m0-137c-116 0-216-43-299-129S247 660 247 538c0-79 19-152 57-220s89-120 154-157 136-56 213-56 148 19 213 56 116 89 154 157 57 141 57 220c0 122-42 226-125 312-84 86-184 129-299 129" horiz-adv-x="1341" unicode="ο"/><glyph d="M1323 965h-221V0H961v965H412V0H271v965H50v123h1273z" horiz-adv-x="1373" unicode="π"/><glyph d="M275 205v-603H135v909c0 177 54 323 163 436 108 113 243 169 404 169 162 0 297-56 405-169 107-113 161-249 161-406 0-160-54-295-163-404C996 27 862-28 702-28c-179 0-321 78-427 233m427 774c-119 0-219-43-301-130S278 659 278 538c0-119 40-221 121-306 80-85 181-127 303-127 128 0 231 43 308 129s116 187 116 304c0 121-41 224-123 311-83 87-183 130-301 130" horiz-adv-x="1372" unicode="ρ"/><glyph d="m1131 862-111-69c-96 127-217 191-363 191q-177 0-294-123c-79-83-118-188-118-316 0-109 31-194 92-257s170-110 325-139c150-28 253-60 310-95q84-52.5 84-186 0-138-105-216c-71-52-162-78-274-78-58 0-113 7-165 20l36 126c42-11 82-16 119-16 165 0 247 53 247 158 0 39-18 71-54 94S745 1 623 20C277 75 104 247 104 535c0 169 53 308 160 417s240 164 399 164c211 0 367-85 468-254" horiz-adv-x="1185" unicode="ς"/><glyph d="M1428 965h-371c120-117 180-258 180-424 0-160-54-295-163-404C965 27 831-28 671-28c-161 0-295 55-404 164S104 380 104 541q0 235.5 162 405c108 113 243 170 405 170 65 0 127-9 184-28h573M671 979c-117 0-216-43-299-128-83-86-125-190-125-313 0-119 40-221 121-306 80-85 181-127 303-127 131 0 235 44 311 133 75 88 113 188 113 300 0 121-41 224-123 311-83 87-183 130-301 130" horiz-adv-x="1468" unicode="σ"/><glyph d="M773 965H482V0H341v965H50v123h723z" horiz-adv-x="823" unicode="τ"/><glyph d="M135 1088h141V580c0-109 6-192 18-250 12-59 46-110 103-155s128-67 215-67c118 0 208 39 269 118s91 185 91 318c0 182-85 330-254 445l77 128c213-125 320-325 320-599 0-160-45-291-136-393S766-28 612-28C469-28 354 14 267 97c-88 83-132 239-132 467z" horiz-adv-x="1219" unicode="υ"/><glyph d="M854-26v-372H713v373Q432.5-7 269 143c-110 99-165 232-165 398 0 130 38 243 114 338q112.5 142.5 309 210l45-133c-217-77-325-217-325-418 0-257 155-399 466-425v1000c26 2 50 3 71 3q315 0 498-153c121-103 182-243 182-422 0-165-55-298-164-398C1190 43 1041-13 854-26m0 1005V113c311 29 466 170 466 425 0 134-42 240-125 318-84 78-198 119-341 123" horiz-adv-x="1568" unicode="φ"/><glyph d="M944 1088 567 388l424-786H831L488 240 144-398H-7l419 780-380 706h158l301-559 300 559z" horiz-adv-x="983" unicode="χ"/><glyph d="M1372 554c0-217-55-367-166-449C1095 22 968-21 824-26v-372H684v372C571-19 475 3 396 42s-143 95-190 170-71 192-71 352v524h139V610c0-116 9-204 27-265 17-61 59-113 125-156q97.5-64.5 258-78v977h140V110c110 9 197 35 262 80 64 44 104 95 121 152s25 147 25 268v478h140z" horiz-adv-x="1507" unicode="ψ"/><glyph d="M878 199c-19-69-57-124-113-165-57-41-122-62-197-62-144 0-257 47-340 140S104 333 104 497c0 173 56 318 167 433s254 177 428 186l11-135c-141-11-254-61-337-150Q247 697.5 247 492c0-125 28-221 83-289 55-69 130-103 227-103 77 0 138 33 183 100s67 163 67 288v134h142V488c0-125 22-221 67-288s106-100 183-100c93 0 168 33 225 100s85 164 85 292c0 139-42 252-125 341-84 89-197 138-338 148l11 135c173-9 316-71 428-186 111-116 167-260 167-433 0-164-41-292-124-385S1332-28 1188-28c-75 0-140 21-196 62q-85.5 61.5-114 165" horiz-adv-x="1756" unicode="ω"/><glyph d="M135 1088h141V0H135M1 1518c32 0 59-11 82-34s34-50 34-82-11-59-34-82-50-34-82-34-59 11-82 34-34 50-34 82 11 59 34 82 50 34 82 34m408 0c32 0 59-11 82-34s34-50 34-82-11-59-34-82-50-34-82-34-59 11-82 34-34 50-34 82 11 59 34 82 50 34 82 34" horiz-adv-x="410" unicode="ϊ"/><glyph d="M135 1088h141V580c0-109 6-192 18-250 12-59 46-110 103-155s128-67 215-67c118 0 208 39 269 118s91 185 91 318c0 182-85 330-254 445l77 128c213-125 320-325 320-599 0-160-45-291-136-393S766-28 612-28C469-28 354 14 267 97c-88 83-132 239-132 467m271 954c32 0 59-11 82-34s34-50 34-82-11-59-34-82-50-34-82-34-59 11-82 34-34 50-34 82 11 59 34 82 50 34 82 34m408 0c32 0 59-11 82-34s34-50 34-82-11-59-34-82-50-34-82-34-59 11-82 34-34 50-34 82 11 59 34 82 50 34 82 34" horiz-adv-x="1219" unicode="ϋ"/><glyph d="M671 1116c167 0 306-61 416-182q150-166.5 150-393c0-152-53-285-158-398Q920-28 671-28q-250.5 0-408 171C157 256 104 389 104 541c0 151 50 281 150 392q165 183 417 183m0-137c-116 0-216-43-299-129S247 660 247 538c0-79 19-152 57-220s89-120 154-157 136-56 213-56 148 19 213 56 116 89 154 157 57 141 57 220c0 122-42 226-125 312-84 86-184 129-299 129m87 619-28-338H612l-29 338z" horiz-adv-x="1341" unicode="ό"/><glyph d="M135 1088h141V580c0-109 6-192 18-250 12-59 46-110 103-155s128-67 215-67c118 0 208 39 269 118s91 185 91 318c0 182-85 330-254 445l77 128c213-125 320-325 320-599 0-160-45-291-136-393S766-28 612-28C469-28 354 14 267 97c-88 83-132 239-132 467m562 1034-28-338H551l-29 338z" horiz-adv-x="1219" unicode="ύ"/><glyph d="M878 199c-19-69-57-124-113-165-57-41-122-62-197-62-144 0-257 47-340 140S104 333 104 497c0 173 56 318 167 433s254 177 428 186l11-135c-141-11-254-61-337-150Q247 697.5 247 492c0-125 28-221 83-289 55-69 130-103 227-103 77 0 138 33 183 100s67 163 67 288v134h142V488c0-125 22-221 67-288s106-100 183-100c93 0 168 33 225 100s85 164 85 292c0 139-42 252-125 341-84 89-197 138-338 148l11 135c173-9 316-71 428-186 111-116 167-260 167-433 0-164-41-292-124-385S1332-28 1188-28c-75 0-140 21-196 62q-85.5 61.5-114 165m87 1399-28-338H819l-29 338z" horiz-adv-x="1756" unicode="ώ"/><glyph d="M180 1471h843v-145H327V866h690V722H327V145h690V0H180m226 1816c32 0 59-11 82-34s34-50 34-82-11-59-34-82-50-34-82-34-59 11-82 34-34 50-34 82 11 59 34 82 50 34 82 34m408 0c32 0 59-11 82-34s34-50 34-82-11-59-34-82-50-34-82-34-59 11-82 34-34 50-34 82 11 59 34 82 50 34 82 34" horiz-adv-x="1098" unicode="Ё"/><glyph d="M511 1328V854h135c157 0 275-12 354-35q118.5-36 189-147c47-74 70-167 70-278 0-137-30-242-89-316-60-75-145-112-256-112-97 0-178 33-244 98l91 102c43-41 90-61 141-61 65 0 116 26 152 78 35 51 53 122 53 211s-15 157-44 202-71 75-125 91-137 24-248 24H511V0H361v1328H32v143h807v-143z" horiz-adv-x="1374" unicode="Ђ"/><glyph d="M323 0H177v1471h737v-145H323m386 569h215l-295-308H491z" horiz-adv-x="946" unicode="Ѓ"/><glyph d="M277 669h695v145H283c13 168 82 302 209 401 126 99 266 148 419 148 221 0 397-85 526-254l117 89c-67 96-156 172-269 227s-239 83-376 83c-225 0-414-73-565-220-152-147-228-328-228-544 0-218 72-403 216-554C475 39 668-37 911-37c275 0 489 98 643 293l-117 88c-137-161-309-242-516-242-158 0-298 46-420 139-123 92-197 235-224 428" horiz-adv-x="1665" unicode="Є"/><glyph d="m27 274 125 75c88-162 190-243 305-243 49 0 96 12 139 35s76 53 99 92 34 80 34 123c0 49-17 98-50 145-46 65-130 144-252 236-123 93-199 160-229 201q-78 103.5-78 225c0 64 15 122 46 175s74 94 130 125c55 30 116 45 181 45q103.5 0 195-51c60-35 124-98 191-190l-120-91c-55 73-102 122-141 145s-82 35-128 35c-59 0-108-18-145-54-38-36-57-80-57-133 0-32 7-63 20-93s38-63 73-98c19-19 83-68 190-147 127-94 215-178 262-251s71-147 71-221c0-107-40-199-121-278S587-37 471-37q-133.5 0-243 72C155 82 88 162 27 274" horiz-adv-x="1020" unicode="Ѕ"/><glyph d="M158 1471h147V0H158z" horiz-adv-x="463" unicode="І"/><glyph d="M158 1471h147V0H158M28 1816c32 0 59-11 82-34s34-50 34-82-11-59-34-82-50-34-82-34-59 11-82 34-34 50-34 82 11 59 34 82 50 34 82 34m408 0c32 0 59-11 82-34s34-50 34-82-11-59-34-82-50-34-82-34-59 11-82 34-34 50-34 82 11 59 34 82 50 34 82 34" horiz-adv-x="463" unicode="Ї"/><glyph d="M660 1471h148V478c0-153-12-259-35-318-24-60-64-108-119-143q-82.5-54-201-54c-59 0-118 12-175 35-58 23-122 63-192 121l78 117c77-54 140-92 191-114 33-15 66-22 98-22 42 0 80 13 115 38 34 25 58 59 72 101 13 42 20 123 20 244z" horiz-adv-x="987" unicode="Ј"/><glyph d="m780 1471 307-631h335q238.5 0 369-36c87-25 154-70 203-137s73-150 73-249c0-101-25-186-75-253-51-67-115-112-193-133-79-21-190-32-333-32h-158L762 1159 211 0H49l695 1471m656-1329h73c123 0 212 7 266 21 53 14 95 44 126 89q45 67.5 45 165c0 68-16 125-48 170-33 45-76 75-130 89-55 13-152 20-291 20h-301z" horiz-adv-x="2181" unicode="Љ"/><glyph d="M325 855h748v616h148V855h105c142 0 248-3 319-10 70-7 135-26 194-58s104-77 136-136c31-59 47-129 47-211 0-113-24-203-71-271-48-68-111-113-190-135-79-23-210-34-395-34h-293v711H325V0H177v1471h148m896-1329h156c141 0 241 6 300 17s105 39 139 84c33 45 50 108 50 188 0 74-18 134-53 179s-82 73-139 84-167 17-329 17h-124z" horiz-adv-x="2136" unicode="Њ"/><glyph d="M512 0H362v1328H33v143h807v-143H512V854h307c109 0 196-15 260-45 64-31 110-77 139-139 28-62 42-162 42-301V0h-150v377c0 105-8 177-25 217-17 39-46 69-87 88s-100 29-175 29H512z" horiz-adv-x="1391" unicode="Ћ"/><glyph d="M179 1471h150V919l587 552h199L408 811 1170 0H975L329 686V0H179m593 1895h215l-295-308H554z" horiz-adv-x="1210" unicode="Ќ"/><glyph d="M67 1467h166l445-999 407 1003h161L688 149C636 25 544-37 411-37c-53 0-104 11-151 33Q189.5 27.5 80 149l107 88c74-73 123-114 148-124q37.5-15 75-15c39 0 72 10 101 31 28 21 59 72 93 155M307 1823h132c23-35 53-61 91-78s83-26 136-26 96 8 129 23q49.5 22.5 93 81h128c-15-60-52-110-112-150-61-41-140-61-239-61q-147 0-240 60c-62 39-101 90-118 151" horiz-adv-x="1323" unicode="Ў"/><glyph d="M598 0H177v1471h148V139h679v1332h148V0H735v-220H598z" horiz-adv-x="1329" unicode="Џ"/><glyph d="M780 1471 1466 0h-158l-231 484H443L213 0H49l695 1471m18-312L509 626h503z" horiz-adv-x="1515" unicode="А"/><glyph d="M178 0v1471h737v-145H323V856h69c183 0 317-16 400-48 83-33 148-84 196-153 47-70 71-148 71-233 0-112-42-210-126-295S732 0 582 0M323 708V144h181c107 0 186 11 236 32s90 53 120 97c29 43 44 92 44 146 0 68-21 126-63 173s-94 79-157 94-156 22-279 22z" horiz-adv-x="1173" unicode="Б"/><glyph d="M183 1471h290c117 0 206-14 269-41 63-28 112-71 149-128 36-57 54-121 54-191 0-65-16-125-48-178-32-54-79-98-141-131 77-26 136-56 177-91s74-78 97-127c23-50 34-104 34-162 0-118-43-218-129-299Q804.5 0 587 0H183m144 1327V856h84c102 0 177 10 225 29q72 28.5 114 90c28 41 42 86 42 136 0 67-23 120-70 159q-70.5 57-225 57M327 708V144h182c107 0 186 11 236 32s90 53 121 98c30 45 45 93 45 145 0 65-21 122-64 171s-101 82-176 100q-75 18-261 18z" horiz-adv-x="1176" unicode="В"/><glyph d="M323 0H177v1471h737v-145H323z" horiz-adv-x="946" unicode="Г"/><glyph d="M175-220H30v357h120l577 1334h51l609-1334h115v-357h-145V0H175m141 137h897L753 1167z" horiz-adv-x="1532" unicode="Д"/><glyph d="M180 1471h843v-145H327V866h690V722H327V145h690V0H180z" horiz-adv-x="1098" unicode="Е"/><glyph d="M1031 683V0H882v683l-45 41L235 0H40l702 815-646 656h198l588-622v622h149V849l589 622h199l-646-656L1874 0h-195l-603 724z" horiz-adv-x="1915" unicode="Ж"/><glyph d="M209 1328c103 120 231 180 383 180 121 0 220-35 299-104 79-70 118-160 118-271 0-157-74-269-221-337q291-90 291-390c0-133-43-241-130-322S744-38 593-38c-105 0-197 22-274 66-78 43-151 120-220 229l114 67c68-100 132-164 191-192 59-29 121-43 185-43 93 0 173 27 238 81s98 133 98 238c0 55-11 104-33 145-23 41-54 74-95 99s-79 41-116 48-97 10-181 10h-25v129h49c218 0 327 88 327 265 0 82-25 147-74 196q-75 72-189 72c-99 0-191-45-278-134z" horiz-adv-x="1190" unicode="З"/><glyph d="M1335 0h-153v1127L213 0h-33v1471h147V324l975 1147h33z" horiz-adv-x="1515" unicode="И"/><glyph d="M1335 0h-153v1127L213 0h-33v1471h147V324l975 1147h33m-932 352h132c23-35 53-61 91-78s83-26 136-26 96 8 129 23q49.5 22.5 93 81h128c-15-60-52-110-112-150-61-41-140-61-239-61q-147 0-240 60c-62 39-101 90-118 151" horiz-adv-x="1515" unicode="Й"/><glyph d="M179 1471h150V919l587 552h199L408 811 1170 0H975L329 686V0H179z" horiz-adv-x="1210" unicode="К"/><glyph d="M1370 0h-160L723 1137 227 0H67l640 1471h32z" horiz-adv-x="1438" unicode="Л"/><glyph d="m112 0 209 1471h24L943 264l592 1207h24L1770 0h-145l-144 1052L961 0h-37L397 1060 254 0z" horiz-adv-x="1882" unicode="М"/><glyph d="M177 1471h148V854h748v617h148V0h-148v710H325V0H177z" horiz-adv-x="1399" unicode="Н"/><glyph d="M880 1508c223 0 409-74 559-223q225-223.5 225-549c0-215-75-398-224-548C1290 38 1107-37 892-37c-218 0-402 75-552 224S115 517 115 729c0 141 34 272 103 393 68 121 161 215 279 284 118 68 246 102 383 102m7-144c-109 0-212-28-309-85s-173-133-228-229-82-203-82-321c0-175 61-322 182-442 121-121 266-181 437-181 114 0 220 28 317 83s172 131 227 227c54 96 81 203 81 320s-27 222-81 317c-55 94-131 169-230 226s-203 85-314 85" horiz-adv-x="1780" unicode="О"/><glyph d="M177 1471h1044V0h-148v1331H325V0H177z" horiz-adv-x="1399" unicode="П"/><glyph d="M178 1471h293c168 0 281-7 340-22 84-21 153-63 206-127 53-65 80-146 80-243 0-98-26-179-78-242-52-64-124-107-215-129-67-16-191-24-374-24H325V0H178m147 1328V828l249-3c101 0 174 9 221 28 47 18 83 48 110 89s40 86 40 137c0 49-13 95-40 136q-40.5 61.5-105 87c-44 17-116 26-215 26z" horiz-adv-x="1212" unicode="Р"/><glyph d="m1549 1198-116-89c-64 83-141 147-230 190-90 43-189 64-296 64-117 0-226-28-326-84-100-57-177-132-232-227s-83-202-83-321c0-179 62-329 185-449q184.5-180 465-180c206 0 378 81 517 242l116-88c-73-93-165-165-274-216-110-51-233-77-368-77-257 0-460 86-609 257-125 145-187 319-187 524 0 215 76 397 227 544s340 220 567 220q205.5 0 372-81c111-55 201-131 272-229" horiz-adv-x="1665" unicode="С"/><glyph d="M33 1328v143h807v-143H512V0H362v1328z" horiz-adv-x="872" unicode="Т"/><glyph d="M67 1467h166l445-999 407 1003h161L688 149C636 25 544-37 411-37c-53 0-104 11-151 33Q189.5 27.5 80 149l107 88c74-73 123-114 148-124q37.5-15 75-15c39 0 72 10 101 31 28 21 59 72 93 155z" horiz-adv-x="1323" unicode="У"/><glyph d="M818 1471h147v-188h113c221 0 375-43 461-129 86-87 129-190 129-311 0-110-38-208-113-293-76-86-220-129-431-129H965V0H818v421H660c-112 0-205 11-278 33-73 21-136 68-188 139-53 71-79 154-79 250 0 120 43 223 128 310s240 130 463 130h112m147-142V563h155l79-1c103 0 181 27 236 81 54 53 81 121 81 202q0 135-96 216c-64 53-161 80-290 80m-312 0H653c-121 0-215-25-283-76-69-51-103-124-103-219 0-81 27-149 81-203s135-81 242-81l74 1h154z" horiz-adv-x="1784" unicode="Ф"/><glyph d="M101 1471h172l352-574 355 574h170L712 758 1179 0h-172L625 617 241 0H69l469 758z" horiz-adv-x="1247" unicode="Х"/><glyph d="M1268 0H178v1471h148V138h679v1333h148V138h252v-358h-137z" horiz-adv-x="1450" unicode="Ц"/><glyph d="M780 836v635h147V0H780v693H674q-220.5 0-321 18c-68 12-129 38-182 79-53 40-90 89-109 148-20 58-30 138-30 241v292h144v-301c0-123 25-210 75-259 49-50 132-75 248-75l104 1 45-1z" horiz-adv-x="1104" unicode="Ч"/><glyph d="M325 139h628v1332h148V139h638v1332h148V0H177v1471h148z" horiz-adv-x="2064" unicode="Ш"/><glyph d="M1887 139h252v-359h-138V0H177v1471h148V139h628v1332h148V139h638v1332h148z" horiz-adv-x="2183" unicode="Щ"/><glyph d="M338 1333H32v138h453V840h105c193 0 332-9 416-28s152-61 203-128 77-154 77-260c0-105-25-191-75-259S1097 53 1020 32C942 11 812 0 631 0H338m147 142h157q247.5 0 324 24 75 22.5 120 87c29 43 44 97 44 164 0 73-19 133-56 179s-85 74-142 85c-58 10-166 15-323 15H485z" horiz-adv-x="1401" unicode="Ъ"/><glyph d="M178 1471h147V840h106c193 0 331-9 415-28s152-61 203-128 77-154 77-260q0-156-75-258C1001 97 937 53 860 32S653 0 471 0H178m147 142h157q247.5 0 324 24 75 22.5 120 87c29 43 44 97 44 164 0 73-19 133-56 179s-85 74-142 85c-58 10-166 15-323 15H325m974 775h147V0h-147z" horiz-adv-x="1624" unicode="Ы"/><glyph d="M178 1471h147V840h106c193 0 331-9 415-28s152-61 203-128 77-154 77-260q0-156-75-258C1001 97 937 53 860 32S653 0 471 0H178m147 142h157q247.5 0 324 24 75 22.5 120 87c29 43 44 97 44 164 0 73-19 133-56 179s-85 74-142 85c-58 10-166 15-323 15H325z" horiz-adv-x="1241" unicode="Ь"/><glyph d="M1388 669H693v145h689c-13 168-82 302-208 401-127 99-267 148-420 148-221 0-397-85-526-254l-117 89c67 96 157 172 270 227s238 83 375 83c225 0 414-73 566-220 151-147 227-328 227-544 0-218-72-403-215-554C1190 39 997-37 754-37c-275 0-489 98-643 293l117 88c137-161 309-242 516-242 158 0 298 46 421 139 122 92 196 235 223 428" horiz-adv-x="1665" unicode="Э"/><glyph d="M324 814h258c37 236 131 411 281 524 149 113 309 170 480 170 222 0 408-74 559-223s226-332 226-549c0-215-75-397-224-547-149-151-332-226-549-226q-298.5 0-519 192C689 282 604 456 582 677H324V0H177v1471h147m1652-735c0 182-63 332-188 451-126 119-272 178-437 178s-309-60-433-180q-186-181.5-186-456c0-179 62-327 185-445 123-119 267-178 434-178 173 0 320 60 442 179s183 270 183 451" horiz-adv-x="2243" unicode="Ю"/><glyph d="M1013 1471H720c-163 0-274-7-332-20-87-20-158-63-213-128-55-66-82-147-82-243 0-80 19-150 57-211 37-61 91-106 161-137s167-47 290-48L72 0h182l528 684h84V0h147M866 1327V827l-253-2c-98 0-170 9-217 28s-84 49-110 90c-27 41-40 86-40 137 0 49 13 94 40 135 27 40 62 69 105 86s115 26 216 26z" horiz-adv-x="1196" unicode="Я"/><glyph d="M1240 1088V0h-138v187c-59-71-124-125-197-161Q795.5-28 665-28c-154 0-285 56-394 168-109 111-164 247-164 407q0 235.5 165 402c110 111 242 167 397 167q133.5 0 243-57c72-38 135-95 190-171v200M680 981q-117 0-216-57c-66-39-118-93-157-162s-59-143-59-220 20-150 59-220 92-124 159-163c66-39 137-59 213-59 77 0 149 19 218 58s122 91 159 157 55 140 55 223c0 126-41 231-124 316S801 981 680 981" horiz-adv-x="1399" unicode="а"/><glyph d="M1197 1531v-134c-67-11-181-19-343-24-117-4-208-12-271-23-64-12-120-34-167-67s-87-83-119-150c-33-67-53-142-61-225l-14-153c38 125 101 216 188 274s183 87 289 87c161 0 296-57 405-170q162-169.5 162-405c0-155-54-289-162-401Q942-28 699-28c-166 0-307 62-422 186S104 477 104 744c0 186 21 327 64 423 42 95 90 164 145 206s125 75 212 99 249 39 487 45c73 2 135 7 185 14m-73-993c0 121-42 224-126 311S814 979 699 979s-214-43-298-130-126-190-126-311c0-120 41-222 122-306 81-85 181-127 302-127s223 42 304 127c81 84 121 186 121 306" horiz-adv-x="1370" unicode="б"/><glyph d="M472 0H156v1088h311c119 0 204-27 257-82q78-82.5 78-192c0-111-49-186-146-225 141-50 212-146 212-289Q868 0 472 0M297 967V627h91c83 0 137 3 162 10s49 23 72 50c22 26 33 61 33 104 0 45-12 83-35 114s-48 49-73 54c-26 5-79 8-159 8m-91-468V118h150c71 0 121 5 152 14 30 9 56 28 78 58 21 30 32 68 32 114 0 59-19 107-56 142s-87 53-148 53z" horiz-adv-x="958" unicode="в"/><glyph d="M295 965V0H156v1088h550V965z" horiz-adv-x="739" unicode="г"/><glyph d="m165 119 420 969h73l417-969h131v-258h-135V0H171v-145H33v264m586 753L301 119h623z" horiz-adv-x="1239" unicode="д"/><glyph d="m1072 361 118-62c-39-76-83-137-134-184S948 33 885 9c-63-25-135-37-215-37-177 0-316 58-416 175-100 116-150 247-150 394 0 138 42 261 127 369 107 137 251 206 431 206 185 0 333-70 444-211q118.5-148.5 120-372H248c3-127 43-230 121-311s174-122 289-122c55 0 109 10 162 29 52 19 96 45 133 77s76 84 119 155m0 293c-19 75-46 134-81 179-36 45-83 81-142 108s-120 41-185 41c-107 0-198-34-275-103-56-50-98-125-127-225z" horiz-adv-x="1331" unicode="е"/><glyph d="M714 1088h142V607l520 481h171l-514-485L1586 0h-179L936 526l-80-67V0H714v459l-78 67L167 0H-12l547 603-506 485h171l514-481z" horiz-adv-x="1575" unicode="ж"/><glyph d="M338 630h73c47 0 90 15 129 46s58 75 58 132c0 49-16 91-47 126s-79 52-144 52c-75 0-151-29-227-88l-79 97q147 123 312 123 136.5 0 228-81c61-54 92-124 92-209q0-169.5-150-231c131-55 196-150 196-287 0-87-30-165-91-234C627 6 535-29 414-29 265-29 146 19 55 116l88 100c67-76 154-114 259-114 71 0 126 19 167 57q60 57 60 150c0 61-20 109-61 146s-89 55-144 55h-86z" horiz-adv-x="866" unicode="з"/><glyph d="M296 1088V283l799 805h11V0H966v798L173 0h-17v1088z" horiz-adv-x="1262" unicode="и"/><glyph d="M296 1088V283l799 805h11V0H966v798L173 0h-17v1088m121 437h132c23-35 53-61 91-78s83-26 136-26 96 8 129 23q49.5 22.5 93 81h128c-15-60-52-110-112-150-61-41-140-61-239-61q-147 0-240 60c-62 39-101 90-118 151" horiz-adv-x="1262" unicode="й"/><glyph d="M156 1088h141V630l503 458h195L444 590 1039 0H841L341 503l-44-39V0H156z" horiz-adv-x="1028" unicode="к"/><glyph d="M1077 0H928L564 792 203 0H53l498 1088h25z" horiz-adv-x="1135" unicode="л"/><glyph d="M1337 1088h40L1746 0h-146l-269 801L913 0h-26L468 801 200 0H54l371 1088h38l438-851z" horiz-adv-x="1800" unicode="м"/><glyph d="M929 524H297V0H156v1088h141V656h632v432h140V0H929z" horiz-adv-x="1225" unicode="н"/><glyph d="M671 1116c167 0 306-61 416-182q150-166.5 150-393c0-152-53-285-158-398Q920-28 671-28q-250.5 0-408 171C157 256 104 389 104 541c0 151 50 281 150 392q165 183 417 183m0-137c-116 0-216-43-299-129S247 660 247 538c0-79 19-152 57-220s89-120 154-157 136-56 213-56 148 19 213 56 116 89 154 157 57 141 57 220c0 122-42 226-125 312-84 86-184 129-299 129" horiz-adv-x="1341" unicode="о"/><glyph d="M156 1088h913V0H929v956H296V0H156z" horiz-adv-x="1225" unicode="п"/><glyph d="M158 1088h139V888c55 76 119 133 191 171s152 57 241 57c155 0 287-56 397-167q165-166.5 165-402c0-160-54-296-163-407C1019 28 887-28 733-28c-87 0-166 18-239 54s-138 90-197 161v-585H158M718 981c-121 0-223-42-306-127S287 664 287 538c0-83 19-157 56-223s90-118 159-157 141-58 218-58c75 0 146 20 213 59 66 39 119 93 158 163s59 143 59 220-19 151-58 220-92 123-158 162q-99 57-216 57" horiz-adv-x="1397" unicode="р"/><glyph d="m1212 862-111-69c-96 127-227 191-393 191-133 0-243-43-330-128-88-85-132-189-132-311 0-79 20-154 61-224 40-70 95-124 166-163 70-39 149-58 236-58 160 0 291 64 392 191l111-73c-52-78-122-138-209-181-88-43-188-65-300-65-172 0-315 55-428 164S105 378 105 535c0 105 27 203 80 294 53 90 125 160 218 211s196 76 311 76c72 0 142-11 209-33s123-51 170-86 86-80 119-135" horiz-adv-x="1325" unicode="с"/><glyph d="M34 1088h716V967H462V0H321v967H34z" horiz-adv-x="784" unicode="т"/><glyph d="M39 1088h148l374-838 363 838h149L424-398H276L486 82z" horiz-adv-x="1098" unicode="у"/><glyph d="M1039 1508h139V924c87 124 213 186 377 186 158 0 291-54 398-161s160-245 160-413c0-166-54-302-162-409S1712-33 1559-33c-168 0-295 65-381 196v-561h-139v561C954 32 826-34 655-34c-151 0-280 53-388 160-109 107-163 243-163 410 0 168 54 306 161 413s239 161 397 161c167 0 293-62 377-186m135-406q0-195 111-306t255-111c131 0 235 43 314 130s118 191 118 313c0 126-41 231-124 314s-183 125-299 125c-105 0-193-37-266-111-73-75-109-193-109-354m-929 25c0-121 39-225 118-312 78-87 183-130 314-130 45 0 94 12 146 35q78 34.5 126 87c31 35 55 75 71 121s24 113 24 202c0 141-37 250-110 325S772 983 668 983c-117 0-216-42-299-125S245 670 245 543" horiz-adv-x="2216" unicode="ф"/><glyph d="M32 1088h168l288-403 288 403h168L572 571 991 0H821L488 457 160 0H-7l412 571z" horiz-adv-x="983" unicode="х"/><glyph d="M1173 0H156v1088h141V132h632v956h141V132h235v-304h-132z" horiz-adv-x="1337" unicode="ц"/><glyph d="M643 491H397c-111 0-194 29-247 86-54 57-81 137-81 239v272h137V891c0-127 18-205 54-235 36-31 95-46 178-46h205v478h139V0H643z" horiz-adv-x="938" unicode="ч"/><glyph d="M1782 0H156v1088h141V132h599v956h143V132h600v956h143z" horiz-adv-x="1937" unicode="ш"/><glyph d="M1885 0H156v1088h141V132h600v956h142V132h600v956h143V132h236v-304h-133z" horiz-adv-x="2050" unicode="щ"/><glyph d="M393 657h134c106 0 189-8 249-25s112-53 155-110 65-123 65-197c0-89-31-166-94-229Q807.5 0 617 0H255v960H55v128h338m0-549V118h161c192 0 288 69 288 208 0 47-13 89-38 125-26 35-60 59-101 71-42 11-106 17-191 17z" horiz-adv-x="1063" unicode="ъ"/><glyph d="M295 657h133c106 0 189-8 249-25s112-53 155-110 65-123 65-197c0-89-31-166-94-229Q708.5 0 518 0H156v1088h139m5-559V118h161c189 0 284 67 284 200 0 38-10 75-30 112-21 37-50 62-89 77s-108 22-207 22m671 559h141V0h-141z" horiz-adv-x="1374" unicode="ы"/><glyph d="M295 657h133c106 0 189-8 249-25s112-53 155-110 65-123 65-197c0-89-31-166-94-229Q708.5 0 518 0H156v1088h139m5-559V118h161c189 0 284 67 284 200 0 38-10 75-30 112-21 37-50 62-89 77s-108 22-207 22z" horiz-adv-x="965" unicode="ь"/><glyph d="M1068 503c-13-122-63-220-150-293S728 100 607 100c-160 0-291 64-392 191l-111-73c52-83 124-144 217-185s190-61 292-61c175 0 319 56 431 167 111 111 167 243 167 396 0 162-57 299-172 412s-261 169-437 169q-153 0-291-66c-93-45-162-107-207-188l111-69c96 127 227 191 393 191 116 0 216-34 300-101 83-67 137-154 160-260H584V503z" horiz-adv-x="1315" unicode="э"/><glyph d="M298 0H157v1088h141V631h182c25 145 90 263 195 352s227 133 366 133c161 0 296-57 405-170q162-169.5 162-405c0-155-54-289-162-401S1203-28 1042-28c-144 0-270 47-377 142-108 94-170 220-185 379H298m1168 45c0 121-42 224-126 311s-183 130-298 130-215-43-299-130-126-190-126-311c0-120 40-222 121-306 80-85 181-127 304-127 121 0 222 42 303 127 81 84 121 186 121 306" horiz-adv-x="1712" unicode="ю"/><glyph d="M615 487H515L205 0H54l327 501q-121.5 15-198 93c-51 51-76 115-76 192 0 96 29 170 88 223 58 53 134 79 229 79h331V0H615m0 967h-92c-89 0-149-6-180-17s-55-31-73-58c-18-28-27-65-27-112 0-45 12-81 35-110q34.5-43.5 78-54c29-7 84-10 167-10h92z" horiz-adv-x="911" unicode="я"/><glyph d="m1072 361 118-62c-39-76-83-137-134-184S948 33 885 9c-63-25-135-37-215-37-177 0-316 58-416 175-100 116-150 247-150 394 0 138 42 261 127 369 107 137 251 206 431 206 185 0 333-70 444-211q118.5-148.5 120-372H248c3-127 43-230 121-311s174-122 289-122c55 0 109 10 162 29 52 19 96 45 133 77s76 84 119 155m0 293c-19 75-46 134-81 179-36 45-83 81-142 108s-120 41-185 41c-107 0-198-34-275-103-56-50-98-125-127-225m200 864c32 0 59-11 82-34s34-50 34-82-11-59-34-82-50-34-82-34-59 11-82 34-34 50-34 82 11 59 34 82 50 34 82 34m408 0c32 0 59-11 82-34s34-50 34-82-11-59-34-82-50-34-82-34-59 11-82 34-34 50-34 82 11 59 34 82 50 34 82 34" horiz-adv-x="1331" unicode="ё"/><glyph d="M329 1508v-136h480v-120H329V893c113 149 249 223 408 223 95 0 175-26 241-78 66-53 109-114 130-184 21-71 31-169 31-294V0l2-164c0-175-62-262-186-262-49 0-102 11-159 34v126c36-19 70-29 101-29 33 0 57 11 74 32s26 46 27 73 1 91 1 190v519c0 126-7 217-20 274-14 57-44 103-89 140q-69 54-180 54c-65 0-122-15-172-44-51-29-93-69-126-118-34-49-56-100-67-153s-16-144-16-273V0H190v1252H35v120h155v136z" horiz-adv-x="1284" unicode="ђ"/><glyph d="M295 965V0H156v1088h550V965m-183 633h215l-295-308H305z" horiz-adv-x="739" unicode="ѓ"/><glyph d="M247 503c13-122 63-220 150-293s190-110 311-110c160 0 291 64 392 191l111-73c-52-83-124-144-217-185S804-28 702-28c-175 0-319 56-430 167Q104 305.5 104 535c0 162 58 299 173 412s260 169 436 169c102 0 199-22 292-66 92-45 161-107 206-188l-111-69c-96 127-227 191-393 191-116 0-216-34-299-101-84-67-138-154-161-260h484V503z" horiz-adv-x="1315" unicode="є"/><glyph d="m703 969-90-93c-75 73-148 109-219 109-45 0-84-15-116-45-33-30-49-65-49-105 0-35 13-69 40-101 27-33 83-71 168-115 104-54 175-106 212-156 37-51 55-108 55-171 0-89-31-165-94-227S469-28 375-28c-63 0-122 14-179 41S91 78 54 126l88 100c71-81 147-121 227-121 56 0 104 18 143 54s59 78 59 127c0 40-13 76-39 107s-85 69-176 116c-98 51-165 101-200 150s-53 106-53 169c0 83 28 151 85 206 56 55 127 82 213 82 100 0 201-49 302-147" horiz-adv-x="795" unicode="ѕ"/><glyph d="M205 1536c32 0 59-11 82-34s34-50 34-82c0-31-11-58-34-81s-50-34-82-34c-31 0-58 11-81 34s-34 50-34 81c0 32 11 59 34 82s50 34 81 34m-70-448h141V0H135z" horiz-adv-x="410" unicode="і"/><glyph d="M135 1088h141V0H135M1 1518c32 0 59-11 82-34s34-50 34-82-11-59-34-82-50-34-82-34-59 11-82 34-34 50-34 82 11 59 34 82 50 34 82 34m408 0c32 0 59-11 82-34s34-50 34-82-11-59-34-82-50-34-82-34-59 11-82 34-34 50-34 82 11 59 34 82 50 34 82 34" horiz-adv-x="410" unicode="ї"/><glyph d="M208 1536c32 0 59-11 82-34 22-23 33-50 33-82q0-46.5-33-81c-23-23-50-34-82-34s-59 11-81 34c-23 23-34 50-34 81 0 32 11 59 34 82 22 23 49 34 81 34m-69-448h142V-164c0-91-16-158-49-199-33-42-79-63-136-63-47 0-101 11-160 34v126c37-19 71-29 101-29 38 0 66 16 85 47 11 20 17 62 17 125z" horiz-adv-x="416" unicode="ј"/><glyph d="m577 1088 200-431h310c107 0 190-8 251-25 60-17 111-55 154-112s64-123 64-197c0-70-23-137-70-200-47-64-127-105-242-123H929L560 828 194 0H54l498 1088m281-559 185-411h102c189 0 284 67 284 200 0 47-12 89-37 124s-58 58-97 70c-40 11-104 17-192 17z" horiz-adv-x="1622" unicode="љ"/><glyph d="M1069 656h128c105 0 188-8 249-25 60-17 112-54 155-111s64-123 64-196c0-89-31-165-94-228-63-64-157-96-284-96H929v524H298V0H156v1088h142V656h631v432h140m0-564V118h160c189 0 284 66 284 197q0 55.5-30 111c-21 36-51 61-90 76s-108 22-206 22z" horiz-adv-x="1733" unicode="њ"/><glyph d="M191 1252H36v120h155v136h139v-136h480v-120H330V893c113 149 249 223 408 223 95 0 175-26 241-78 66-53 109-114 130-184 21-71 31-169 31-294V0h-140v519c0 126-7 217-20 274-14 57-44 103-89 140q-69 54-180 54c-65 0-122-15-172-44-51-29-93-69-126-118-34-49-56-100-67-153s-16-144-16-273V0H191z" horiz-adv-x="1284" unicode="ћ"/><glyph d="M156 1088h141V630l503 458h195L444 590 1039 0H841L341 503l-44-39V0H156m495 1598h215l-295-308H433z" horiz-adv-x="1028" unicode="ќ"/><glyph d="M39 1088h148l374-838 363 838h149L424-398H276L486 82M194 1525h132c23-35 53-61 91-78s83-26 136-26 96 8 129 23q49.5 22.5 93 81h128c-15-60-52-110-112-150-61-41-140-61-239-61q-147 0-240 60c-62 39-101 90-118 151" horiz-adv-x="1098" unicode="ў"/><glyph d="M541 0H157v1088h141V132h632v956h141V0H673v-172H541z" horiz-adv-x="1227" unicode="џ"/><glyph d="M323 0H177v1471h475v214h145v-359H323z" horiz-adv-x="829" unicode="Ґ"/><glyph d="M295 965V0H156v1088h382v135h137V965z" horiz-adv-x="729" unicode="ґ"/><glyph d="M96 1471h151L546 411l422 1060h30l417-1060 305 1060h150L1448 0h-28L984 1113 539 0h-28m411 1895 218-308h-138l-295 308z" horiz-adv-x="1966" unicode="Ẁ"/><glyph d="M9 1088h144l333-790 349 790h25l348-790 339 790h146L1221 0h-27L848 779 499 0h-26m317 1598 218-308H870l-295 308z" horiz-adv-x="1702" unicode="ẁ"/><glyph d="M96 1471h151L546 411l422 1060h30l417-1060 305 1060h150L1448 0h-28L984 1113 539 0h-28m540 1895h215l-295-308H833z" horiz-adv-x="1966" unicode="Ẃ"/><glyph d="M9 1088h144l333-790 349 790h25l348-790 339 790h146L1221 0h-27L848 779 499 0h-26m446 1598h215l-295-308H701z" horiz-adv-x="1702" unicode="ẃ"/><glyph d="M96 1471h151L546 411l422 1060h30l417-1060 305 1060h150L1448 0h-28L984 1113 539 0h-28m269 1816c32 0 59-11 82-34s34-50 34-82-11-59-34-82-50-34-82-34-59 11-82 34-34 50-34 82 11 59 34 82 50 34 82 34m408 0c32 0 59-11 82-34s34-50 34-82-11-59-34-82-50-34-82-34-59 11-82 34-34 50-34 82 11 59 34 82 50 34 82 34" horiz-adv-x="1966" unicode="Ẅ"/><glyph d="M9 1088h144l333-790 349 790h25l348-790 339 790h146L1221 0h-27L848 779 499 0h-26m176 1518c32 0 59-11 82-34s34-50 34-82-11-59-34-82-50-34-82-34-59 11-82 34-34 50-34 82 11 59 34 82 50 34 82 34m408 0c32 0 59-11 82-34s34-50 34-82-11-59-34-82-50-34-82-34-59 11-82 34-34 50-34 82 11 59 34 82 50 34 82 34" horiz-adv-x="1702" unicode="ẅ"/><glyph d="M63 1471h170l376-606 370 606h170L683 703V0H538v703m8 1192 218-308H626l-295 308z" horiz-adv-x="1212" unicode="Ỳ"/><glyph d="M39 1088h148l374-838 363 838h149L424-398H276L486 82m2 1516 218-308H568l-295 308z" horiz-adv-x="1098" unicode="ỳ"/><glyph d="M-12 637h1560V508H-12z" horiz-adv-x="1536" unicode="―"/><glyph d="M371 959c-35 70-58 130-69 179s-16 115-16 198v172h181v-275h-89c5-71 29-148 71-230z" horiz-adv-x="719" unicode="‛"/><glyph d="M-42 1869h1219v-74H-42z" horiz-adv-x="1135" unicode="‾"/><glyph d="M465 965h358V836H505l31-112h287V595H564c7-45 10-91 10-137 0-83-7-148-22-195 127-101 218-151 273-151 65 0 102 77 109 232h141q0-166.5-60-273C974-1 918-37 845-37c-101 0-215 53-342 160C448 16 368-37 263-37c-54 0-102 15-143 46-42 30-63 77-63 142s22 120 67 165 96 67 155 67q70.5 0 144-39c5 43 7 79 7 108 0 50-5 98-14 143H99v129h286l-30 112H99v129h220c-25 85-37 154-37 206 0 97 36 178 107 242 71 63 156 95 253 95 101 0 183-34 245-102 61-69 95-162 102-281H853c-8 166-77 249-206 249-73 0-128-20-167-59-39-40-58-88-58-144 0-53 14-121 43-206m-80-758c-43 27-81 41-114 41-23 0-41-7-55-22-15-15-22-34-22-55s7-39 20-53c13-15 29-22 48-22q76.5 0 123 111" horiz-adv-x="1135" unicode="₤"/><glyph d="M180 0v1471h32l978-1126v1126h145V0h-33L332 1112V0m1862 633c0-95-34-176-101-244-68-68-149-102-244-102-96 0-178 34-245 102-67 67-101 149-101 244s34 177 102 245c67 67 149 101 244 101s176-34 244-101c67-68 101-150 101-245m-126 0c0 61-21 113-64 156s-94 64-155 64-112-21-155-64-65-95-65-156 22-112 65-155 94-64 155-64c60 0 112 22 155 65s64 94 64 154m-565-531h691V0h-691z" horiz-adv-x="2249" unicode="№"/><glyph d="M321 531V160C401 79 500 39 619 39c169 0 301 82 395 246l72-43C1007 129 930 54 855 19c-76-35-155-53-236-53-155 0-281 53-380 159C140 230 90 366 90 531c0 168 50 304 150 409 99 104 226 156 379 156 143 0 265-47 366-142s156-236 163-423m-231 74v297c-83 81-183 121-300 121s-215-41-296-122V605z" horiz-adv-x="1229" unicode="℮"/><glyph d="m284-37 923 1545h112L394-37M225 1489h187V733H302v658H152m1357-977c97-45 146-110 146-194 0-63-26-119-78-166-52-48-124-72-217-72-96 0-169 24-218 73q-75 73.5-75 159c0 87 50 153 151 200-73 37-109 91-109 160q0 81 75 141c50 40 111 60 182 60 73 0 132-20 179-61s70-89 70-144c0-67-35-119-106-156m-5 160c0 30-13 55-38 74-26 19-61 28-104 28-39 0-72-10-100-29q-42-28.5-42-75 0-48 45-81c29-23 62-34 99-34 38 0 71 11 99 34 27 23 41 50 41 83m40-355c0 41-17 75-51 103-35 27-77 41-127 41-49 0-93-14-130-41-38-27-57-64-57-110q0-67.5 54-99 54-33 129-33c52 0 95 13 130 39s52 59 52 100" horiz-adv-x="1702" unicode="⅛"/><glyph d="M173 1293H61c36 143 126 215 271 215 73 0 135-20 186-59s76-88 76-145-30-106-91-145q138-66 138-192c0-68-28-127-85-177q-85.5-75-222-75c-170 0-270 80-301 241h109c23-95 87-142 193-142 60 0 108 15 143 44s53 63 53 101c0 36-17 69-52 98s-103 45-202 47v94c59 0 107 10 145 29s57 46 57 79q0 40.5-42 72c-28 21-63 31-104 31-75 0-129-39-160-116M333-37l924 1545h111L444-37m1065 451c97-45 146-110 146-194 0-63-26-119-78-166-52-48-124-72-217-72-92 0-164 24-215 71-52 47-78 100-78 161 0 87 50 153 150 200-72 37-108 91-108 160q0 81 75 141c50 40 110 60 181 60 73 0 132-20 179-61s70-89 70-144q0-100.5-105-156m-6 160c0 30-13 55-38 74s-60 28-104 28c-39 0-72-10-99-29q-42-28.5-42-75 0-48 45-81c29-23 62-34 99-34 38 0 71 11 98 34s41 50 41 83m41-355c0 41-17 75-51 103-35 27-77 41-127 41-49 0-93-14-131-41s-57-64-57-110c0-45 18-78 55-99 36-22 79-33 128-33 53 0 96 13 131 39s52 59 52 100" horiz-adv-x="1702" unicode="⅜"/><glyph d="m333-37 924 1545h111L444-37m169 1526v-97H300l-38-172c29 7 58 10 88 10q129 0 207-72c52-49 78-107 78-176 0-73-28-135-85-188s-133-79-229-79c-81 0-147 21-196 64-49 42-77 91-83 147h113c19-75 75-113 170-113 54 0 100 17 139 50s58 73 58 122c0 44-17 80-52 107s-81 40-140 40q-79.5 0-201-30l85 387M1509 414c97-45 145-110 145-194 0-63-26-119-77-166-52-48-124-72-217-72-97 0-170 24-219 73s-74 102-74 159c0 87 50 153 150 200-72 37-108 91-108 160q0 81 75 141c50 40 110 60 181 60q105 0 177-60c48-41 72-89 72-145q0-100.5-105-156m-6 160c0 30-13 55-38 74s-60 28-104 28c-39 0-72-10-99-29q-42-28.5-42-75 0-48 45-81c29-23 62-34 99-34 38 0 71 11 98 34s41 50 41 83m41-355c0 41-17 75-51 103-35 27-77 41-127 41-49 0-93-14-131-41s-57-64-57-110c0-45 18-78 55-99 36-22 79-33 128-33 53 0 96 13 131 39s52 59 52 100" horiz-adv-x="1702" unicode="⅝"/><glyph d="m259-37 923 1545h111L369-37M81 1489h579L185 715l-91 40 388 637H81m1428-978c97-45 146-110 146-194 0-63-26-119-78-166-52-48-124-72-217-72-96 0-169 24-218 73q-75 73.5-75 159c0 87 50 153 151 200-73 37-109 91-109 160q0 81 75 141c50 40 111 60 182 60q105 0 177-60c48-41 72-89 72-145 0-67-35-119-106-156m-5 160c0 30-13 55-38 74-26 19-61 28-104 28-39 0-72-10-100-29q-42-28.5-42-75 0-48 45-81c29-23 62-34 99-34 38 0 71 11 99 34 27 23 41 50 41 83m40-355c0 41-17 75-52 103-35 27-77 41-126 41s-93-14-131-41-57-64-57-110c0-45 18-78 55-99q54-33 129-33c52 0 95 13 130 39s52 59 52 100" horiz-adv-x="1702" unicode="⅞"/><glyph d="M153 0v634l461 519 462-519V0M234 81h761v519l-381 427-380-427z" horiz-adv-x="1229" unicode="⌂"/><glyph d="M115 1024h1012V887H252V447H115z" horiz-adv-x="1241" unicode="⌐"/><glyph d="M687-515H542v1811c0 138 29 246 86 324s126 117 206 117c49 0 85-11 106-34s32-48 32-75-9-49-26-66c-18-17-39-26-62-26s-41 5-55 14c-15 9-29 24-43 47-16 25-32 37-47 37-19 0-33-8-40-24-8-17-12-68-12-154z" horiz-adv-x="1229" unicode="⌠"/><glyph d="M542 1737h145V-74c0-138-29-246-86-324S475-515 395-515c-39 0-72 9-98 28-27 19-40 46-40 81 0 27 9 50 27 67 17 17 37 25 60 25s42-5 57-14c14-9 28-25 42-47 16-25 32-37 47-37 19 0 33 8 41 24 7 16 11 67 11 154z" horiz-adv-x="1229" unicode="⌡"/><glyph d="M1478 534H-18v175h1496z" horiz-adv-x="1460" unicode="─"/><glyph d="M643-621v2485h175V-621z" horiz-adv-x="1460" unicode="│"/><glyph d="M1479 709V534H818V-621H643V709z" horiz-adv-x="1460" unicode="┌"/><glyph d="M642 534H-18v175h835V-621H642z" horiz-adv-x="1460" unicode="┐"/><glyph d="M643 534v1330h175V709h661V534z" horiz-adv-x="1460" unicode="└"/><glyph d="M817 534H-18v175h660v1155h175z" horiz-adv-x="1460" unicode="┘"/><glyph d="M643-621v2485h175V709h661V534H818V-621z" horiz-adv-x="1460" unicode="├"/><glyph d="M642-621V534H-18v175h660v1155h175V-621z" horiz-adv-x="1460" unicode="┤"/><glyph d="M642 534H-18v175h1496V534H817V-621H642z" horiz-adv-x="1460" unicode="┬"/><glyph d="M1478 534H-18v175h660v1155h175V709h661z" horiz-adv-x="1460" unicode="┴"/><glyph d="M642 534H-18v175h660v1155h175V709h661V534H817V-621H642z" horiz-adv-x="1460" unicode="┼"/><glyph d="M1478 724H-18v175h1496m0-555H-18v175h1496z" horiz-adv-x="1460" unicode="═"/><glyph d="M833-621v2485h175V-621m-555 0v2485h175V-621z" horiz-adv-x="1460" unicode="║"/><glyph d="M643-621V899h836V724H818V519h661V344H818v-965z" horiz-adv-x="1460" unicode="╒"/><glyph d="M453-621V709h1026V534h-471V-621H833V519H628V-621z" horiz-adv-x="1460" unicode="╓"/><glyph d="M628-621H453V899h1025V724H628m380-380v-965H833V519h645V344z" horiz-adv-x="1460" unicode="╔"/><glyph d="M642 344H-18v175h660v205H-18v175h835V-621H642z" horiz-adv-x="1460" unicode="╕"/><glyph d="M452-621V534H-18v175h1025V-621H832V534H627V-621z" horiz-adv-x="1460" unicode="╖"/><glyph d="M832-621V724H-18v175h1025V-621M452 344H-18v175h645V-621H452z" horiz-adv-x="1460" unicode="╗"/><glyph d="M643 344v1520h175V899h661V724H818V519h661V344z" horiz-adv-x="1460" unicode="╘"/><glyph d="M1478 534H453v1330h175V709h205v1155h175V709h470z" horiz-adv-x="1460" unicode="╙"/><glyph d="M628 1864V519h850V344H453v1520m555-965h470V724H833v1140h175z" horiz-adv-x="1460" unicode="╚"/><glyph d="M817 344H-18v175h660v205H-18v175h660v965h175z" horiz-adv-x="1460" unicode="╛"/><glyph d="M1007 534H-18v175h470v1155h175V709h205v1155h175z" horiz-adv-x="1460" unicode="╜"/><glyph d="M832 1864h175V344H-18v175h850M452 899v965h175V724H-18v175z" horiz-adv-x="1460" unicode="╝"/><glyph d="M643-621v2485h175V899h661V724H818V519h661V344H818v-965z" horiz-adv-x="1460" unicode="╞"/><glyph d="M833-621v2485h175V709h471V534h-471V-621m-555 0v2485h175V-621z" horiz-adv-x="1460" unicode="╟"/><glyph d="M453-621v2485h175V-621M833 724v1140h175V899h471V724M833-621V519h646V344h-471v-965z" horiz-adv-x="1460" unicode="╠"/><glyph d="M642 344H-18v175h660v205H-18v175h660v965h175V-621H642z" horiz-adv-x="1460" unicode="╡"/><glyph d="M452-621V534H-18v175h470v1155h175V-621m205 0v2485h175V-621z" horiz-adv-x="1460" unicode="╢"/><glyph d="M832-621v2485h175V-621M627 1864V724H-18v175h470v965m0-1520H-18v175h645V-621H452z" horiz-adv-x="1460" unicode="╣"/><glyph d="M1478 724H-18v175h1496M642 344H-18v175h1496V344H817v-965H642z" horiz-adv-x="1460" unicode="╤"/><glyph d="M452-621V534H-18v175h1496V534h-471V-621H832V519H627V-621z" horiz-adv-x="1460" unicode="╥"/><glyph d="M1478 724H-18v175h1496M452 344H-18v175h645V-621H452m380 0V519h646V344h-471v-965z" horiz-adv-x="1460" unicode="╦"/><glyph d="M1478 724H-18v175h660v965h175V899h661m0-555H-18v175h1496z" horiz-adv-x="1460" unicode="╧"/><glyph d="M1478 534H-18v175h470v1155h175V709h205v1155h175V709h471z" horiz-adv-x="1460" unicode="╨"/><glyph d="M627 724H-18v175h470v965h175m851-1140H832v1140h175V899h471m0-555H-18v175h1496z" horiz-adv-x="1460" unicode="╩"/><glyph d="M642 344H-18v175h660v205H-18v175h660v965h175V899h661V724H817V519h661V344H817v-965H642z" horiz-adv-x="1460" unicode="╪"/><glyph d="M452-621V534H-18v175h470v1155h175V709h205v1155h175V709h471V534h-471V-621H832V534H627V-621z" horiz-adv-x="1460" unicode="╫"/><glyph d="M1008 899h470V724H833v1140h175M452 899v965h175V724H-18v175m470-555H-18v175h645V-621H452m556 965v-965H833V519h645V344z" horiz-adv-x="1460" unicode="╬"/><glyph d="M1478 621H-18v1243h1496z" horiz-adv-x="1460" unicode="▀"/><glyph d="M1478-621H-18V621h1496z" horiz-adv-x="1460" unicode="▄"/><glyph d="M-18-621v2485h1496V-621z" horiz-adv-x="1460" unicode="█"/><glyph d="M-18-621v2485h748V-621z" horiz-adv-x="1460" unicode="▌"/><glyph d="M730-621v2485h748V-621z" horiz-adv-x="1460" unicode="▐"/><glyph d="M107 1864h125v-125H107m498 125h125v-125H605m499 125h125v-125h-125m-748-124h125v-125H356m499 125h124v-125H855m498 125h125v-125h-125m-249-124h125v-125h-125m-499 125h125v-125H605m-498 125h125v-125H107m1246-125h125V992h-125m-498 124h124V992H855m-499 124h125V992H356M107 867h125V742H107m498 125h125V742H605m499 125h125V742h-125m249-124h125V493h-125M855 618h124V493H855M356 618h125V493H356M107 369h125V244H107m498 125h125V244H605m499 125h125V244h-125M356 119h125V-5H356m499 124h124V-5H855m498 124h125V-5h-125m-249-125h125v-125h-125M605-130h125v-125H605M107-130h125v-125H107m249-124h125v-125H356m499 125h124v-125H855m498 125h125v-125h-125z" horiz-adv-x="1460" unicode="░"/><glyph d="M107 1864h124v-125H107m249 125h124v-125H356m249 125h125v-125H605m249 125h125v-125H854m250 125h124v-125h-124m249 125h124v-125h-124M-18 1615h125v-125H-18m249 125h125v-125H231m249 125h125v-125H480m250 125h124v-125H730m249 125h125v-125H979m249 125h125v-125h-125M107 1366h124v-125H107m249 125h124v-125H356m249 125h125v-125H605m249 125h125v-125H854m250 125h124v-125h-124m249 125h124v-125h-124M-18 1116h125V992H-18m249 124h125V992H231m249 124h125V992H480m250 124h124V992H730m249 124h125V992H979m249 124h125V992h-125M107 867h124V742H107m249 125h124V742H356m249 125h125V742H605m249 125h125V742H854m250 125h124V742h-124m249 125h124V742h-124M-18 618h125V493H-18m498 125h125V493H480m250 125h124V493H730m249 125h125V493H979m249 125h125V493h-125M231 618h125V493H231m1122-124h124V244h-124m-249 125h124V244h-124M854 369h125V244H854M605 369h125V244H605M356 369h124V244H356M107 369h124V244H107M-18 119h125V-5H-18m249 124h125V-5H231m249 124h125V-5H480m250 124h124V-5H730m249 124h125V-5H979m249 124h125V-5h-125m125-125h124v-125h-124m-249 125h124v-125h-124M854-130h125v-125H854M605-130h125v-125H605M356-130h124v-125H356M107-130h124v-125H107M-18-379h125v-125H-18m249 125h125v-125H231m249 125h125v-125H480m250 125h124v-125H730m249 125h125v-125H979m249 125h125v-125h-125z" horiz-adv-x="1460" unicode="▒"/><glyph d="M1495 1490v-374h-124V992h124V618h-124V493h124V119h-124V-5h124v-374h-124v-125h124v-124H0v373h125v125H0v374h125v125H0v373h125v125H0v374h125v125H0v373h125v125h124v-125h125v125h124v-125h125v125h125v-125h124v125h125v-125h125v125h124v-125h125v125h124v-249h-124v-125M125 1615v-125h124v125m125 0v-125h124v125m125 0v-125h125v125m124 0v-125h125v125m125 0v-125h124v125m125-249h-125v-125h125m-249 125H997v-125h125m-250 125H748v-125h124m-249 125H498v-125h125m-249 125H249v-125h125m-249-125V992h124v124m125 0V992h124v124m125 0V992h125v124m124 0V992h125v124m125 0V992h124v124M374 867H249V742h125m124 125V742h125v125m125 0V742h124v125m125 0V742h125v125m124 0V742h125v125M125 618V493h124v125m374 0V493h125v125M498 493v125H374V493m498 125V493h125v125m125 0V493h124v125m125-374v125h-125V244m-124 0v125H997V244m-125 0v125H748V244m-125 0v125H498V244m-124 0v125H249V244M125 119V-5h124v124m125 0V-5h124v124m125 0V-5h125v124m124 0V-5h125v124m125 0V-5h124v124m125-374v125h-125v-125m-124 0v125H997v-125m-125 0v125H748v-125m-125 0v125H498v-125m-124 0v125H249v-125M125-379v-125h124v125m125 0v-125h124v125m125 0v-125h125v125m124 0v-125h125v125m125 0v-125h124v125z" horiz-adv-x="1495" unicode="▓"/><glyph d="M146 944h944V0H146z" horiz-adv-x="1237" unicode="■"/><glyph d="M0 703h2047V317H0z" horiz-adv-x="2048" unicode="▬"/><glyph d="m304 0 710 1419L1724 0z" horiz-adv-x="2027" unicode="▲"/><glyph d="m288 1417 1451-724L288-31z" horiz-adv-x="2027" unicode="►"/><glyph d="M1724 1388 1014-31 304 1388z" horiz-adv-x="2027" unicode="▼"/><glyph d="M1739 1417V-31L288 693z" horiz-adv-x="2027" unicode="◄"/><glyph d="M1055 578c0-121-43-225-129-311-87-87-190-130-311-130q-183 0-312 129T174 578c0 121 43 225 130 311 86 86 189 129 310 129q183 0 312-129c86-86 129-190 129-311m-76 0c0 100-36 186-107 257S715 942 615 942c-101 0-187-36-258-107-71-72-107-158-107-257s36-185 107-257q106.5-108 258-108c100 0 186 36 257 108 71 71 107 157 107 257" horiz-adv-x="1229" unicode="○"/><glyph d="M124 0v980h980V0M816 490c0 55-20 103-59 143-39 39-87 59-143 59-55 0-102-20-142-59s-60-87-60-143c0-55 20-103 60-142 39-40 87-60 142-60 56 0 104 20 143 60s59 87 59 142" horiz-adv-x="1229" unicode="◘"/><glyph d="M38 0v1155h1155V0m-137 577c0 121-43 224-129 311-87 87-190 130-311 130-122 0-226-43-312-130S175 698 175 577s43-224 129-310c86-87 190-130 312-130 121 0 224 43 311 130 86 86 129 189 129 310m-76 0c0-100-36-186-107-257S716 213 616 213c-101 0-187 36-258 107S251 477 251 577q0 151.5 108 258c71 71 157 107 257 107s186-35 257-106 107-158 107-259" horiz-adv-x="1229" unicode="◙"/><glyph d="M1683 518c0-175-62-324-187-449s-275-188-450-188c-176 0-326 62-451 187-125 124-187 274-187 450 0 175 63 326 188 451s275 187 450 187c176 0 326-62 451-186 124-125 186-275 186-452m-92 0c0 150-53 278-160 385s-236 160-385 160c-150 0-278-53-385-160S501 668 501 518c0-149 53-277 160-384S896-26 1046-26c149 0 278 53 385 160s160 235 160 384M882 650c0-22-8-41-23-57-16-16-35-24-58-24q-33 0-57 24t-24 57c0 23 8 42 24 58 16 15 35 23 57 23 23 0 42-8 58-23 15-16 23-35 23-58m489 0q0-33-24-57t-57-24-57 24-24 57c0 23 8 42 24 58 16 15 35 23 57 23s41-8 57-23c16-16 24-35 24-58M752 313l62 36c53-96 130-144 232-144q153 0 231 144l63-36q-103.5-195-294-195T752 313" horiz-adv-x="2091" unicode="☺"/><glyph d="M1715 518c0-175-62-324-187-449s-275-188-450-188c-176 0-326 62-451 187-125 124-187 274-187 450 0 175 63 326 188 451s275 187 450 187c176 0 326-62 451-186 124-125 186-275 186-452M914 650c0 23-8 42-23 58-16 15-35 23-58 23-22 0-41-8-57-23-16-16-24-35-24-58q0-33 24-57t57-24c23 0 42 8 58 24 15 16 23 35 23 57m489 0c0 23-8 42-24 58-16 15-35 23-57 23s-41-8-57-23c-16-16-24-35-24-58q0-33 24-57t57-24 57 24 24 57M784 313q103.5-195 294-195t294 195l-63 36q-78-144-231-144c-102 0-179 48-232 144z" horiz-adv-x="2155" unicode="☻"/><glyph d="M902 1621h76v-337c127-5 244-51 350-140l289 283 52-53-286-286c93-117 141-236 143-358h336v-69h-336c-9-127-57-243-143-348l286-289-57-51-284 280c-111-83-228-130-350-139v-337h-76v337c-135 17-250 63-345 139L261-27l-49 51 284 289c-83 102-131 219-144 352H16v69h336c9 131 57 248 144 349l-284 287 49 57 291-283c120 87 237 133 350 140m548-585c0 141-50 262-150 362q-151.5 150-363 150c-141 0-261-50-361-150-101-101-151-221-151-362s50-261 151-362c100-101 220-151 361-151s261 50 362 151 151 221 151 362" horiz-adv-x="1878" unicode="☼"/><glyph d="M591 481V116h417V62H591v-399h-54V62H119v54h418v365c-54 0-117 17-189 52-73 34-134 90-184 167S89 863 89 956c0 131 47 243 140 336s205 140 336 140 243-47 336-140 140-205 140-336c0-123-42-231-127-323-85-93-193-143-323-152m401 474c0 117-42 218-125 301s-184 125-302 125c-117 0-218-42-301-125-84-84-126-184-126-301s42-218 126-301c83-84 184-126 301-126s218 42 302 126c83 83 125 184 125 301" horiz-adv-x="1131" unicode="♀"/><glyph d="m1107 1372 29-10c23-239 77-444 161-615l-25-16c-99 125-173 264-222 415L755 511q109.5-42 201-162c61-80 91-169 91-268 0-125-44-227-133-304S717-339 588-339q-205.5 0-345 135C149-115 102-7 102 118s44 231 131 316 189 128 306 128c51 0 107-11 170-33l293 636c-143-60-295-95-457-104v27c110 34 195 67 256 98q90 46.5 306 186M531 516c-105 0-196-38-272-113-76-76-114-166-114-269q0-172.5 117-282c77-74 169-111 274-111 108 0 199 38 274 114Q921-32.5 921 122c0 113-39 207-118 282S633 516 531 516" horiz-adv-x="1366" unicode="♂"/><glyph d="M547 1231c12-55 34-111 65-169s98-135 203-230c81-74 138-134 170-181 31-47 47-97 47-152 0-64-21-117-64-160s-95-64-156-64c-103 0-187 63-254 190 0-153 34-262 101-325 67-64 160-98 277-103l7-37H150l8 37c121 0 216 35 283 105s100 164 100 282v41c-60-127-147-190-262-190-61 0-113 22-155 66-43 44-64 96-64 155 0 100 63 202 188 305 175 143 274 287 299 430" horiz-adv-x="1092" unicode="♠"/><glyph d="M1103 0H255l8 34c102 22 175 45 220 69 44 23 86 69 125 138s58 145 58 228l-1 42c-37-78-84-137-143-177-59-41-121-61-184-61-77 0-142 27-196 81-55 54-82 120-82 199 0 74 24 138 73 193 48 55 104 82 169 82 43 0 97-17 163-51-45 71-67 131-67 182 0 75 26 140 79 193s118 79 197 79 145-26 199-79c53-53 80-116 80-188 0-63-23-125-69-187 71 35 125 53 162 53 70 0 129-27 176-82s71-118 71-191q0-120-81-201c-54-55-118-82-193-82-52 0-108 17-167 50s-114 95-165 187c3-105 19-188 48-250 29-63 70-111 123-145 52-34 131-61 237-82z" horiz-adv-x="1354" unicode="♣"/><glyph d="M607-24c-21 81-52 158-92 229-41 71-133 200-276 389-67 89-114 159-140 212S60 913 60 969c0 73 25 135 74 186q73.5 75 183 75c137 0 234-84 290-251 23 86 61 150 114 191s110 61 171 61c73 0 134-25 184-75 49-50 74-109 74-177 0-56-13-116-40-179q-40.5-94.5-174-264C747 296 637 109 607-24" horiz-adv-x="1210" unicode="♥"/><glyph d="M517 1231c129-215 282-424 461-627-35-35-106-123-214-265S574 76 517-24C450 103 297 312 60 604c216 255 368 464 457 627" horiz-adv-x="1038" unicode="♦"/><glyph d="M926 1535h60q163.5-100.5 366-309c135-139 202-234 202-285 0-11-7-25-20-44s-26-29-39-29c-19 0-40 15-63 44-37 44-102 107-195 190s-174 145-242 188l26-1374c0-81-24-146-71-193-48-47-120-91-217-131-97-41-195-61-292-61q-196.5 0-306 99C62-304 26-228 26-142 26-36 80 57 189 137q162 120 372 120c128 0 260-31 396-94z" horiz-adv-x="1579" unicode="♪"/><glyph d="m832 1195 934 291V185c0-99-12-172-37-221s-67-89-125-121q-88.5-48-201-48c-97 0-167 26-212 77s-68 113-68 186c0 78 30 145 90 202s138 85 234 85c56 0 123-17 200-50v850L948 928V-53c0-82-10-150-29-203-20-53-60-99-121-136-61-38-134-57-217-57-81 0-147 23-199 69q-78 69-78 192c0 86 31 156 93 211 62 54 139 81 230 81 63 0 132-18 205-54z" horiz-adv-x="2048" unicode="♫"/><glyph d="M233-127c31 10 62 15 95 15 105 0 157-37 157-110 0-46-21-84-62-113q-63-45-168-45c-41 0-90 7-145 22l22 71c45-9 80-14 104-14 87 0 130 22 130 65 0 29-24 43-73 43-18 0-42-4-72-13z" horiz-adv-x="664" unicode=""/><glyph d="M197 965c51 167 146 300 285 397 138 97 297 145 476 145 43 0 97-5 160-14l-37-141q-58.5 12-120 12c-133 0-253-35-362-106s-189-168-239-293h639l-36-138H326c-5-31-7-63-7-96 0-20 2-46 5-78h591l-36-137H354c46-130 125-232 236-305 111-74 237-111 379-111 43 0 90 6 139 17V-23q-64.5-12-150-12c-187 0-349 49-485 146-137 97-229 232-278 405H47l35 137h88c-3 37-4 67-4 90 0 21 1 49 4 84H47l37 138z" horiz-adv-x="1135" unicode="€"/></font>
</svg>
